  0
SECTION
  2
HEADER
  9
$ACADVER
  1
AC1018
  9
$ACADMAINTVER
 70
     0
  9
$DWGCODEPAGE
  3
ANSI_1252
  9
$LASTSAVEDBY
  1
Candy
  9
$INSBASE
 10
228.3258122068817
 20
11.58027522935536
 30
0.0
  9
$EXTMIN
 10
424.3849784452585
 20
2531.268268828622
 30
0.0
  9
$EXTMAX
 10
509.0852244942972
 20
2740.148229015069
 30
0.0
  9
$LIMMIN
 10
0.0
 20
0.0
  9
$LIMMAX
 10
420.0
 20
297.0
  9
$ORTHOMODE
 70
     1
  9
$REGENMODE
 70
     1
  9
$FILLMODE
 70
     1
  9
$QTEXTMODE
 70
     0
  9
$MIRRTEXT
 70
     1
  9
$LTSCALE
 40
0.1
  9
$ATTMODE
 70
     1
  9
$TEXTSIZE
 40
3.5
  9
$TRACEWID
 40
1.0
  9
$TEXTSTYLE
  7
DAX
  9
$CLAYER
  8
TEXT
  9
$CELTYPE
  6
BYLAYER
  9
$CECOLOR
 62
   256
  9
$CELTSCALE
 40
1.0
  9
$DISPSILH
 70
     0
  9
$DIMSCALE
 40
1.0
  9
$DIMASZ
 40
1.0
  9
$DIMEXO
 40
7.0
  9
$DIMDLI
 40
5.0
  9
$DIMRND
 40
0.0
  9
$DIMDLE
 40
0.0
  9
$DIMEXE
 40
2.0
  9
$DIMTP
 40
0.0
  9
$DIMTM
 40
0.0
  9
$DIMTXT
 40
2.5
  9
$DIMCEN
 40
3.0
  9
$DIMTSZ
 40
0.0
  9
$DIMTOL
 70
     0
  9
$DIMLIM
 70
     0
  9
$DIMTIH
 70
     0
  9
$DIMTOH
 70
     0
  9
$DIMSE1
 70
     0
  9
$DIMSE2
 70
     0
  9
$DIMTAD
 70
     0
  9
$DIMZIN
 70
     8
  9
$DIMBLK
  1
THICK2
  9
$DIMASO
 70
     1
  9
$DIMSHO
 70
     1
  9
$DIMPOST
  1

  9
$DIMAPOST
  1

  9
$DIMALT
 70
     0
  9
$DIMALTD
 70
     2
  9
$DIMALTF
 40
0.0394
  9
$DIMLFAC
 40
1.0
  9
$DIMTOFL
 70
     1
  9
$DIMTVP
 40
0.0
  9
$DIMTIX
 70
     0
  9
$DIMSOXD
 70
     0
  9
$DIMSAH
 70
     1
  9
$DIMBLK1
  1

  9
$DIMBLK2
  1

  9
$DIMSTYLE
  2
STANDARD
  9
$DIMCLRD
 70
     7
  9
$DIMCLRE
 70
     7
  9
$DIMCLRT
 70
     7
  9
$DIMTFAC
 40
0.8571428571428571
  9
$DIMGAP
 40
1.0
  9
$DIMJUST
 70
     0
  9
$DIMSD1
 70
     0
  9
$DIMSD2
 70
     0
  9
$DIMTOLJ
 70
     1
  9
$DIMTZIN
 70
     8
  9
$DIMALTZ
 70
     8
  9
$DIMALTTZ
 70
     8
  9
$DIMUPT
 70
     0
  9
$DIMDEC
 70
     1
  9
$DIMTDEC
 70
     1
  9
$DIMALTU
 70
     2
  9
$DIMALTTD
 70
     2
  9
$DIMTXSTY
  7
MAATVOERING
  9
$DIMAUNIT
 70
     0
  9
$DIMADEC
 70
     0
  9
$DIMALTRND
 40
0.0
  9
$DIMAZIN
 70
     0
  9
$DIMDSEP
 70
    46
  9
$DIMATFIT
 70
     3
  9
$DIMFRAC
 70
     0
  9
$DIMLDRBLK
  1
THICK2
  9
$DIMLUNIT
 70
     2
  9
$DIMLWD
 70
    -2
  9
$DIMLWE
 70
    -2
  9
$DIMTMOVE
 70
     2
  9
$LUNITS
 70
     2
  9
$LUPREC
 70
     1
  9
$SKETCHINC
 40
1.0
  9
$FILLETRAD
 40
1.0
  9
$AUNITS
 70
     0
  9
$AUPREC
 70
     0
  9
$MENU
  1
acad
  9
$ELEVATION
 40
0.0
  9
$PELEVATION
 40
0.0
  9
$THICKNESS
 40
0.0
  9
$LIMCHECK
 70
     0
  9
$CHAMFERA
 40
0.0
  9
$CHAMFERB
 40
0.0
  9
$CHAMFERC
 40
0.0
  9
$CHAMFERD
 40
0.0
  9
$SKPOLY
 70
     0
  9
$TDCREATE
 40
2457364.389332778
  9
$TDUCREATE
 40
2457364.347666112
  9
$TDUPDATE
 40
2458106.681943021
  9
$TDUUPDATE
 40
2458106.640276354
  9
$TDINDWG
 40
0.0054318171
  9
$TDUSRTIMER
 40
0.0054316667
  9
$USRTIMER
 70
     1
  9
$ANGBASE
 50
0.0
  9
$ANGDIR
 70
     0
  9
$PDMODE
 70
     3
  9
$PDSIZE
 40
0.0
  9
$PLINEWID
 40
0.0
  9
$SPLFRAME
 70
     0
  9
$SPLINETYPE
 70
     6
  9
$SPLINESEGS
 70
     8
  9
$HANDSEED
  5
30AA
  9
$SURFTAB1
 70
     6
  9
$SURFTAB2
 70
     6
  9
$SURFTYPE
 70
     6
  9
$SURFU
 70
     6
  9
$SURFV
 70
     6
  9
$UCSBASE
  2

  9
$UCSNAME
  2

  9
$UCSORG
 10
0.0
 20
0.0
 30
0.0
  9
$UCSXDIR
 10
1.0
 20
0.0
 30
0.0
  9
$UCSYDIR
 10
0.0
 20
1.0
 30
0.0
  9
$UCSORTHOREF
  2

  9
$UCSORTHOVIEW
 70
     0
  9
$UCSORGTOP
 10
0.0
 20
0.0
 30
0.0
  9
$UCSORGBOTTOM
 10
0.0
 20
0.0
 30
0.0
  9
$UCSORGLEFT
 10
0.0
 20
0.0
 30
0.0
  9
$UCSORGRIGHT
 10
0.0
 20
0.0
 30
0.0
  9
$UCSORGFRONT
 10
0.0
 20
0.0
 30
0.0
  9
$UCSORGBACK
 10
0.0
 20
0.0
 30
0.0
  9
$PUCSBASE
  2

  9
$PUCSNAME
  2

  9
$PUCSORG
 10
0.0
 20
0.0
 30
0.0
  9
$PUCSXDIR
 10
1.0
 20
0.0
 30
0.0
  9
$PUCSYDIR
 10
0.0
 20
1.0
 30
0.0
  9
$PUCSORTHOREF
  2

  9
$PUCSORTHOVIEW
 70
     0
  9
$PUCSORGTOP
 10
0.0
 20
0.0
 30
0.0
  9
$PUCSORGBOTTOM
 10
0.0
 20
0.0
 30
0.0
  9
$PUCSORGLEFT
 10
0.0
 20
0.0
 30
0.0
  9
$PUCSORGRIGHT
 10
0.0
 20
0.0
 30
0.0
  9
$PUCSORGFRONT
 10
0.0
 20
0.0
 30
0.0
  9
$PUCSORGBACK
 10
0.0
 20
0.0
 30
0.0
  9
$USERI1
 70
     0
  9
$USERI2
 70
     0
  9
$USERI3
 70
     0
  9
$USERI4
 70
     0
  9
$USERI5
 70
     0
  9
$USERR1
 40
0.0
  9
$USERR2
 40
0.0
  9
$USERR3
 40
0.0
  9
$USERR4
 40
0.0
  9
$USERR5
 40
0.0
  9
$WORLDVIEW
 70
     1
  9
$SHADEDGE
 70
     3
  9
$SHADEDIF
 70
    70
  9
$TILEMODE
 70
     1
  9
$MAXACTVP
 70
    16
  9
$PINSBASE
 10
0.0
 20
0.0
 30
0.0
  9
$PLIMCHECK
 70
     0
  9
$PEXTMIN
 10
0.0
 20
0.0
 30
0.0
  9
$PEXTMAX
 10
0.0
 20
0.0
 30
0.0
  9
$PLIMMIN
 10
0.0
 20
0.0
  9
$PLIMMAX
 10
12.0
 20
9.0
  9
$UNITMODE
 70
     0
  9
$VISRETAIN
 70
     0
  9
$PLINEGEN
 70
     0
  9
$PSLTSCALE
 70
     1
  9
$TREEDEPTH
 70
  3020
  9
$CMLSTYLE
  2
STANDARD
  9
$CMLJUST
 70
     0
  9
$CMLSCALE
 40
1.0
  9
$PROXYGRAPHICS
 70
     1
  9
$MEASUREMENT
 70
     0
  9
$CELWEIGHT
370
    -1
  9
$ENDCAPS
280
     0
  9
$JOINSTYLE
280
     0
  9
$LWDISPLAY
290
     0
  9
$INSUNITS
 70
     0
  9
$HYPERLINKBASE
  1

  9
$STYLESHEET
  1
plotpen.ctb
  9
$XEDIT
290
     1
  9
$CEPSNTYPE
380
     0
  9
$PSTYLEMODE
290
     1
  9
$FINGERPRINTGUID
  2
{0135C4DE-4258-40EC-B0F3-F12F7B7DF9AB}
  9
$VERSIONGUID
  2
{CBD8DEFF-A91E-461C-ADFD-2B3E7B7EE61C}
  9
$EXTNAMES
290
     1
  9
$PSVPSCALE
 40
0.0
  9
$OLESTARTUP
290
     0
  9
$SORTENTS
280
    96
  9
$INDEXCTL
280
     0
  9
$HIDETEXT
280
     0
  9
$XCLIPFRAME
290
     0
  9
$HALOGAP
280
     0
  9
$OBSCOLOR
 70
   257
  9
$OBSLTYPE
280
     0
  9
$INTERSECTIONDISPLAY
280
     0
  9
$INTERSECTIONCOLOR
 70
   257
  9
$DIMASSOC
280
     1
  9
$PROJECTNAME
  1

  0
ENDSEC
  0
SECTION
  2
CLASSES
  0
CLASS
  1
DICTIONARYVAR
  2
AcDbDictionaryVar
  3
ObjectDBX Classes
 90
        0
 91
       12
280
     0
281
     0
  0
CLASS
  1
LWPOLYLINE
  2
AcDbPolyline
  3
ObjectDBX Classes
 90
        0
 91
       14
280
     0
281
     1
  0
CLASS
  1
HATCH
  2
AcDbHatch
  3
ObjectDBX Classes
 90
        0
 91
        9
280
     0
281
     1
  0
CLASS
  1
ACDBDICTIONARYWDFLT
  2
AcDbDictionaryWithDefault
  3
ObjectDBX Classes
 90
        0
 91
        1
280
     0
281
     0
  0
CLASS
  1
ACDBPLACEHOLDER
  2
AcDbPlaceHolder
  3
ObjectDBX Classes
 90
        0
 91
        1
280
     0
281
     0
  0
CLASS
  1
LAYOUT
  2
AcDbLayout
  3
ObjectDBX Classes
 90
        0
 91
        3
280
     0
281
     0
  0
CLASS
  1
PLOTSETTINGS
  2
AcDbPlotSettings
  3
ObjectDBX Classes
 90
        0
 91
        1
280
     0
281
     0
  0
CLASS
  1
TABLESTYLE
  2
AcDbTableStyle
  3
ObjectDBX Classes
 90
     4095
 91
        1
280
     0
281
     0
  0
CLASS
  1
SORTENTSTABLE
  2
AcDbSortentsTable
  3
ObjectDBX Classes
 90
        0
 91
        1
280
     0
281
     0
  0
CLASS
  1
MATERIAL
  2
AcDbMaterial
  3
ObjectDBX Classes
 90
        0
 91
        3
280
     0
281
     0
  0
CLASS
  1
VISUALSTYLE
  2
AcDbVisualStyle
  3
ObjectDBX Classes
 90
     4095
 91
       24
280
     0
281
     0
  0
CLASS
  1
SCALE
  2
AcDbScale
  3
ObjectDBX Classes
 90
     1153
 91
       17
280
     0
281
     0
  0
CLASS
  1
MLEADERSTYLE
  2
AcDbMLeaderStyle
  3
ACDB_MLEADERSTYLE_CLASS
 90
     4095
 91
        1
280
     0
281
     0
  0
CLASS
  1
ACDBSECTIONVIEWSTYLE
  2
AcDbSectionViewStyle
  3
ObjectDBX Classes
 90
     1025
 91
        1
280
     0
281
     0
  0
CLASS
  1
ACDBDETAILVIEWSTYLE
  2
AcDbDetailViewStyle
  3
ObjectDBX Classes
 90
     1025
 91
        1
280
     0
281
     0
  0
CLASS
  1
CELLSTYLEMAP
  2
AcDbCellStyleMap
  3
ObjectDBX Classes
 90
     1152
 91
        1
280
     0
281
     0
  0
ENDSEC
  0
SECTION
  2
TABLES
  0
TABLE
  2
VPORT
  5
8
102
{ACAD_XDICTIONARY
360
3055
102
}
330
0
100
AcDbSymbolTable
 70
     4
  0
VPORT
  5
30A9
330
8
100
AcDbSymbolTableRecord
100
AcDbViewportTableRecord
  2
*Active
 70
     0
 10
0.0
 20
0.0
 11
1.0
 21
1.0
 12
499.8911993487659
 22
2634.055663775397
 13
0.0
 23
0.0
 14
10.0
 24
10.0
 15
0.75
 25
0.75
 16
0.0
 26
0.0
 36
1.0
 17
0.0
 27
0.0
 37
0.0
 40
254.9677914705608
 41
1.878220140515222
 42
50.0
 43
0.0
 44
0.0
 50
0.0
 51
0.0
 71
     0
 72
   100
 73
     1
 74
     0
 75
     0
 76
     0
 77
     0
 78
     0
281
     0
 65
     1
110
0.0
120
0.0
130
0.0
111
1.0
121
0.0
131
0.0
112
0.0
122
1.0
132
0.0
 79
     0
146
0.0
  0
ENDTAB
  0
TABLE
  2
LTYPE
  5
5
330
0
100
AcDbSymbolTable
 70
     3
  0
LTYPE
  5
11
330
5
100
AcDbSymbolTableRecord
100
AcDbLinetypeTableRecord
  2
BYBLOCK
 70
     0
  3

 72
    65
 73
     0
 40
0.0
  0
LTYPE
  5
12
330
5
100
AcDbSymbolTableRecord
100
AcDbLinetypeTableRecord
  2
BYLAYER
 70
     0
  3

 72
    65
 73
     0
 40
0.0
  0
LTYPE
  5
13
330
5
100
AcDbSymbolTableRecord
100
AcDbLinetypeTableRecord
  2
CONTINUOUS
 70
     0
  3
Solid line
 72
    65
 73
     0
 40
0.0
  0
LTYPE
  5
2D2E
330
5
100
AcDbSymbolTableRecord
100
AcDbLinetypeTableRecord
  2
PHANTOM2
 70
     0
  3
Phantom (.5x) ___ _ _ ___ _ _ ___ _ _ ___ _ _
 72
    65
 73
     6
 40
1.25
 49
0.625
 74
     0
 49
-0.125
 74
     0
 49
0.125
 74
     0
 49
-0.125
 74
     0
 49
0.125
 74
     0
 49
-0.125
 74
     0
  0
LTYPE
  5
2E64
330
5
100
AcDbSymbolTableRecord
100
AcDbLinetypeTableRecord
  2
CENTER
 70
     0
  3
____ _ ____ _ ____ _ ____ _ ____ _ ____ _ ____ 
 72
    65
 73
     4
 40
50.8
 49
31.75
 74
     0
 49
-6.349999999999999
 74
     0
 49
6.349999999999999
 74
     0
 49
-6.349999999999999
 74
     0
  0
ENDTAB
  0
TABLE
  2
LAYER
  5
2
102
{ACAD_XDICTIONARY
360
15E7
102
}
330
0
100
AcDbSymbolTable
 70
    17
  0
LAYER
  5
E
102
{ACAD_XDICTIONARY
360
3029
102
}
330
2
100
AcDbSymbolTableRecord
100
AcDbLayerTableRecord
  2
0
 70
     0
 62
     7
  6
CONTINUOUS
370
    -3
390
764
  0
LAYER
  5
2D
102
{ACAD_XDICTIONARY
360
302B
102
}
330
2
100
AcDbSymbolTableRecord
100
AcDbLayerTableRecord
  2
TEXT
 70
     0
 62
     7
  6
CONTINUOUS
370
    -3
390
764
  0
LAYER
  5
2E
102
{ACAD_XDICTIONARY
360
302D
102
}
330
2
100
AcDbSymbolTableRecord
100
AcDbLayerTableRecord
  2
BEMATING
 70
     0
 62
     7
  6
CONTINUOUS
370
    -3
390
764
  0
LAYER
  5
2901
330
2
100
AcDbSymbolTableRecord
100
AcDbLayerTableRecord
  2
DEFPOINTS
 70
     0
 62
     7
  6
CONTINUOUS
290
     0
370
    -3
390
764
  0
LAYER
  5
2903
102
{ACAD_XDICTIONARY
360
3033
102
}
330
2
100
AcDbSymbolTableRecord
100
AcDbLayerTableRecord
  2
CONTOUR0-18
 70
     0
 62
     1
  6
CONTINUOUS
370
    -3
390
764
  0
LAYER
  5
2E65
102
{ACAD_XDICTIONARY
360
3045
102
}
330
2
100
AcDbSymbolTableRecord
100
AcDbLayerTableRecord
  2
CONTOUR4-100
 70
     0
 62
    10
  6
CONTINUOUS
370
    -3
390
764
  0
LAYER
  5
2E66
102
{ACAD_XDICTIONARY
360
3047
102
}
330
2
100
AcDbSymbolTableRecord
100
AcDbLayerTableRecord
  2
CONTOUR1-18
 70
     0
 62
     1
  6
CONTINUOUS
370
    -3
390
764
  0
ENDTAB
  0
TABLE
  2
STYLE
  5
3
330
0
100
AcDbSymbolTable
 70
     7
  0
STYLE
  5
F
330
3
100
AcDbSymbolTableRecord
100
AcDbTextStyleTableRecord
  2
STANDARD
 70
     0
 40
3.5
 41
1.0
 50
0.0
 71
     0
 42
2.5
  3
swiss.ttf
  4

1001
ACAD
1000
Swis721 BT
1071
       34
  0
STYLE
  5
541
330
3
100
AcDbSymbolTableRecord
100
AcDbTextStyleTableRecord
  2
MAATVOERING
 70
     0
 40
2.5
 41
1.0
 50
0.0
 71
     0
 42
2.5
  3
romans.shx
  4

  0
STYLE
  5
15E3
330
3
100
AcDbSymbolTableRecord
100
AcDbTextStyleTableRecord
  2
DAX
 70
     0
 40
3.5
 41
1.0
 50
0.0
 71
     0
 42
3.5
  3
DaxReg_5.ttf
  4

1001
ACAD
1000
Dax-Regular
1071
        2
  0
ENDTAB
  0
TABLE
  2
VIEW
  5
6
330
0
100
AcDbSymbolTable
 70
     0
  0
ENDTAB
  0
TABLE
  2
UCS
  5
7
330
0
100
AcDbSymbolTable
 70
     0
  0
ENDTAB
  0
TABLE
  2
APPID
  5
9
330
0
100
AcDbSymbolTable
 70
    17
  0
APPID
  5
10
330
9
100
AcDbSymbolTableRecord
100
AcDbRegAppTableRecord
  2
ACAD
 70
     0
  0
APPID
  5
1523
330
9
100
AcDbSymbolTableRecord
100
AcDbRegAppTableRecord
  2
CONTENTTABDATA
 70
     0
  0
APPID
  5
1524
330
9
100
AcDbSymbolTableRecord
100
AcDbRegAppTableRecord
  2
CONTENTCURRENTTAB
 70
     0
  0
APPID
  5
1525
330
9
100
AcDbSymbolTableRecord
100
AcDbRegAppTableRecord
  2
CONTENTBLOCKDESCRIPTION
 70
     0
  0
APPID
  5
15E5
330
9
100
AcDbSymbolTableRecord
100
AcDbRegAppTableRecord
  2
ACAD_PSEXT
 70
     0
  0
APPID
  5
15E6
330
9
100
AcDbSymbolTableRecord
100
AcDbRegAppTableRecord
  2
AcAecLayerStandard
 70
     0
  0
APPID
  5
16B0
330
9
100
AcDbSymbolTableRecord
100
AcDbRegAppTableRecord
  2
GENIUS_GENODEF_13
 70
     0
  0
APPID
  5
16B1
330
9
100
AcDbSymbolTableRecord
100
AcDbRegAppTableRecord
  2
GENIUS_GENOBJ-N-FIL_13
 70
     0
  0
APPID
  5
2B5C
330
9
100
AcDbSymbolTableRecord
100
AcDbRegAppTableRecord
  2
ACAD_DSTYLE_DIMTEXT_FILL
 70
     0
  0
APPID
  5
2B5D
330
9
100
AcDbSymbolTableRecord
100
AcDbRegAppTableRecord
  2
ACAD_DSTYLE_DIMEXT_LENGTH
 70
     0
  0
APPID
  5
2B5E
330
9
100
AcDbSymbolTableRecord
100
AcDbRegAppTableRecord
  2
ACAD_DSTYLE_DIMEXT_ENABLED
 70
     0
  0
APPID
  5
2B5F
330
9
100
AcDbSymbolTableRecord
100
AcDbRegAppTableRecord
  2
ACAD_DSTYLE_DIM_LINETYPE
 70
     0
  0
APPID
  5
2B60
330
9
100
AcDbSymbolTableRecord
100
AcDbRegAppTableRecord
  2
ACAD_DSTYLE_DIM_EXT1_LINETYPE
 70
     0
  0
APPID
  5
2B61
330
9
100
AcDbSymbolTableRecord
100
AcDbRegAppTableRecord
  2
ACAD_DSTYLE_DIM_EXT2_LINETYPE
 70
     0
  0
APPID
  5
2C1D
330
9
100
AcDbSymbolTableRecord
100
AcDbRegAppTableRecord
  2
ACAD_DSTYLE_DIMJOGGED_JOGANGLE_SYMBOL
 70
     0
  0
APPID
  5
2E67
330
9
100
AcDbSymbolTableRecord
100
AcDbRegAppTableRecord
  2
ACAD_NAV_VCDISPLAY
 70
     0
  0
APPID
  5
3092
330
9
100
AcDbSymbolTableRecord
100
AcDbRegAppTableRecord
  2
ACAD_MLEADERVER
 70
     0
  0
ENDTAB
  0
TABLE
  2
DIMSTYLE
  5
A
330
0
100
AcDbSymbolTable
 70
     1
100
AcDbDimStyleTable
 71
     1
340
53E
  0
DIMSTYLE
105
53E
102
{ACAD_REACTORS
330
2EC9
330
2ECF
330
2ED4
330
2ED5
330
2EDE
330
2EE9
330
2F1D
330
2F1E
330
2F1F
330
2F20
330
2F21
102
}
330
A
100
AcDbSymbolTableRecord
100
AcDbDimStyleTableRecord
  2
STANDARD
 70
     0
340
F
  0
ENDTAB
  0
TABLE
  2
BLOCK_RECORD
  5
1
330
0
100
AcDbSymbolTable
 70
    42
  0
BLOCK_RECORD
  5
17
102
{ACAD_XDICTIONARY
360
15BA
102
}
330
1
100
AcDbSymbolTableRecord
100
AcDbBlockTableRecord
  2
*MODEL_SPACE
340
767
  0
BLOCK_RECORD
  5
30A2
330
1
100
AcDbSymbolTableRecord
100
AcDbBlockTableRecord
  2
*Paper_Space
340
30A3
  0
BLOCK_RECORD
  5
1C
330
1
100
AcDbSymbolTableRecord
100
AcDbBlockTableRecord
  2
THICK2
340
0
102
{BLKREFS
331
2C82
331
2C83
331
2C8D
331
2C8E
331
2C96
331
2C97
331
2CA0
331
2CA1
331
2CAA
331
2CAB
331
2CB4
331
2CB5
331
2CBF
331
2CC0
331
2CC8
331
2CC9
331
2CD2
331
2CD3
331
2DDB
331
2DDC
331
2DE8
331
2DE9
331
2DF5
331
2DF6
331
2E02
331
2E03
331
2E0F
331
2E10
331
2E1D
331
2E1E
331
2E29
331
2E2A
331
2E36
331
2E37
331
2E43
331
2E44
331
2E50
331
2E51
331
2E5D
331
2E5E
331
2FFD
331
2FFE
331
3007
331
3008
331
3011
331
3012
331
301B
331
301C
331
2FB7
331
2FB8
331
2FC1
331
2FC2
331
2FCB
331
2FCC
331
2FD5
331
2FD6
331
2FDF
331
2FE0
331
2FEA
331
2FEB
331
2FF3
331
2FF4
102
}
  0
BLOCK_RECORD
  5
28F9
330
1
100
AcDbSymbolTableRecord
100
AcDbBlockTableRecord
  2
Band-Nr6150
340
0
102
{BLKREFS
331
2F22
331
2F23
102
}
  0
BLOCK_RECORD
  5
2F24
330
1
100
AcDbSymbolTableRecord
100
AcDbBlockTableRecord
  2
*D30
340
0
  0
BLOCK_RECORD
  5
2F31
330
1
100
AcDbSymbolTableRecord
100
AcDbBlockTableRecord
  2
*D31
340
0
  0
BLOCK_RECORD
  5
2F3E
330
1
100
AcDbSymbolTableRecord
100
AcDbBlockTableRecord
  2
*D32
340
0
  0
BLOCK_RECORD
  5
2F4B
330
1
100
AcDbSymbolTableRecord
100
AcDbBlockTableRecord
  2
*D33
340
0
  0
BLOCK_RECORD
  5
2F58
330
1
100
AcDbSymbolTableRecord
100
AcDbBlockTableRecord
  2
*D34
340
0
  0
BLOCK_RECORD
  5
2F65
330
1
100
AcDbSymbolTableRecord
100
AcDbBlockTableRecord
  2
*D35
340
0
  0
BLOCK_RECORD
  5
2F72
330
1
100
AcDbSymbolTableRecord
100
AcDbBlockTableRecord
  2
*D36
340
0
  0
BLOCK_RECORD
  5
2F7F
330
1
100
AcDbSymbolTableRecord
100
AcDbBlockTableRecord
  2
*D37
340
0
  0
BLOCK_RECORD
  5
2F8C
330
1
100
AcDbSymbolTableRecord
100
AcDbBlockTableRecord
  2
*D38
340
0
  0
BLOCK_RECORD
  5
2F99
330
1
100
AcDbSymbolTableRecord
100
AcDbBlockTableRecord
  2
*D39
340
0
  0
BLOCK_RECORD
  5
2FA6
330
1
100
AcDbSymbolTableRecord
100
AcDbBlockTableRecord
  2
*D40
340
0
  0
ENDTAB
  0
ENDSEC
  0
SECTION
  2
BLOCKS
  0
BLOCK
  5
36
330
17
100
AcDbEntity
  8
0
100
AcDbBlockBegin
  2
*MODEL_SPACE
 70
     0
 10
0.0
 20
0.0
 30
0.0
  3
*MODEL_SPACE
  1

  0
ENDBLK
  5
37
330
17
100
AcDbEntity
  8
0
100
AcDbBlockEnd
  0
BLOCK
  5
30A4
330
30A2
100
AcDbEntity
 67
     1
  8
0
100
AcDbBlockBegin
  2
*Paper_Space
 70
     0
 10
0.0
 20
0.0
 30
0.0
  3
*Paper_Space
  1

  0
ENDBLK
  5
30A5
330
30A2
100
AcDbEntity
 67
     1
  8
0
100
AcDbBlockEnd
  0
BLOCK
  5
3A
330
1C
100
AcDbEntity
  8
0
100
AcDbBlockBegin
  2
THICK2
 70
     0
 10
0.0
 20
0.0
 30
0.0
  3
THICK2
  1

  0
LINE
  5
3B
330
1C
100
AcDbEntity
  8
BEMATING
 62
     7
100
AcDbLine
 10
-1.999994999999998
 20
0.0
 30
0.0
 11
1.999994999999998
 21
0.0
 31
0.0
  0
LINE
  5
3C
330
1C
100
AcDbEntity
  8
BEMATING
 62
     9
100
AcDbLine
 10
-0.7954951288348724
 20
-0.7954951288348298
 30
0.0
 11
0.7954951288348724
 21
0.7954951288348298
 31
0.0
  0
ENDBLK
  5
3D
330
1C
100
AcDbEntity
  8
0
100
AcDbBlockEnd
  0
BLOCK
  5
28FA
330
28F9
100
AcDbEntity
  8
0
100
AcDbBlockBegin
  2
Band-Nr6150
 70
     0
 10
0.0
 20
0.0
 30
0.0
  3
Band-Nr6150
  1

  0
LWPOLYLINE
  5
28FB
102
{ACAD_REACTORS
330
28FC
102
}
330
28F9
100
AcDbEntity
  8
BEMATING
100
AcDbPolyline
 90
       24
 70
     1
 43
0.0
 10
-12.03507063814075
 20
9.196365927771012
 42
0.822561696036945
 10
-11.83254243528839
 20
8.64356516654584
 10
-10.98272426249835
 20
8.818274237361265
 10
-10.98272426249835
 20
3.874463729690546
 10
-12.10433304133883
 20
3.000756379146309
 42
0.7467354177837918
 10
-12.00902121021116
 20
2.678989029755825
 10
-10.98272426249835
 20
2.663885443019694
 10
-10.98272426249835
 20
-0.7855720935323234
 42
-0.2039214600742718
 10
-11.13604372468879
 20
-1.145867256841597
 10
-12.12341075513134
 20
-2.091996491656445
 42
0.8105301734172094
 10
-11.91633451134228
 20
-2.42405308113723
 10
-11.81729979747277
 20
-2.389493115431264
 42
-0.1645000437529372
 10
-10.14277065424224
 20
-2.200138153874021
 10
-2.837095203016815
 20
-3.83085398618563
 42
0.066114939775187
 10
-1.989975867825251
 20
-3.855402709345426
 42
0.2991121552934865
 10
1.87170991536368
 20
-0.6579606873311832
 42
0.1590275267653622
 10
1.773517343286584
 20
0.3852595826937204
 42
0.3764163398999706
 10
1.533038257636235
 20
0.493609298789238
 10
0.1161567141507476
 20
0.0150636731954137
 42
-0.3762126752200714
 10
-2.699029875339419
 20
1.809898201858345
 10
-2.979024571793161
 20
7.899734156221256
 10
-2.357028480922281
 20
7.724112905827951
 42
0.7987947825966828
 10
-2.150085843657279
 20
8.33104348005304
 42
0.1245897451608651
 10
-9.423894123268865
 20
10.13883319494357
 42
0.1623187278905707
  0
HATCH
  5
28FC
330
28F9
100
AcDbEntity
  8
CONTOUR0-18
100
AcDbHatch
 10
0.0
 20
0.0
 30
0.0
210
0.0
220
0.0
230
1.0
  2
GRASS
 70
     0
 71
     1
 91
        3
 92
        7
 72
     1
 73
     1
 93
       24
 10
-2.979024571793162
 20
7.899734156221256
 42
0.0
 10
-2.357028480922281
 20
7.724112905827951
 42
0.7987947825966819
 10
-2.150085843657279
 20
8.33104348005304
 42
0.1245897451608651
 10
-9.423894123268865
 20
10.13883319494357
 42
0.1623187278905706
 10
-12.03507063814075
 20
9.196365927771012
 42
0.8225616960369496
 10
-11.83254243528838
 20
8.64356516654584
 42
0.0
 10
-10.98272426249835
 20
8.818274237361265
 42
0.0
 10
-10.98272426249835
 20
3.874463729690546
 42
0.0
 10
-12.1280030523188
 20
2.982317986927199
 42
0.6712008953479312
 10
-12.01417089981256
 20
2.679064815602926
 42
0.0
 10
-10.98272426249835
 20
2.663885443019694
 42
0.0
 10
-10.98272426249835
 20
-0.7855720935323234
 42
-0.2049995638018497
 10
-11.13753808616536
 20
-1.147299205688152
 42
0.0
 10
-12.12341075513134
 20
-2.091996491656445
 42
0.7995616797525292
 10
-11.92136127850508
 20
-2.425807263019224
 42
0.0
 10
-11.81729979747277
 20
-2.389493115431264
 42
-0.1676514273620651
 10
-10.11127826583071
 20
-2.207167638926136
 42
0.0
 10
-2.837095203016815
 20
-3.83085398618563
 42
0.066114939775187
 10
-1.989975867825251
 20
-3.855402709345426
 42
0.2991121552934865
 10
1.87170991536368
 20
-0.6579606873311832
 42
0.1590275267653622
 10
1.773517343286584
 20
0.3852595826937204
 42
0.3764163398999712
 10
1.533038257636234
 20
0.4936092987892378
 42
0.0
 10
0.1161567141507476
 20
0.0150636731954137
 42
-0.3762126752200713
 10
-2.699029875339419
 20
1.809898201858343
 42
0.0
 97
        1
330
28FB
 92
       22
 72
     1
 73
     1
 93
       14
 10
-6.516911080858591
 20
3.236800527257287
 42
-0.2360679775002735
 10
-6.591331921612237
 20
3.286414421092899
 42
0.0
 10
-6.665752762365883
 20
3.416650892411666
 42
0.500000000000097
 10
-6.824517222640253
 20
3.436496449945821
 42
0.0
 10
-6.928706399694902
 20
3.32858623085292
 42
-0.243584803692578
 10
-7.015865859847614
 20
3.299210605063977
 42
0.0
 10
-9.669934682875037
 20
3.669359645092868
 42
-0.3782424518883233
 10
-9.932724262498396
 20
3.967043008106998
 42
0.0
 10
-9.932724262498396
 20
8.401415768091965
 42
-0.4135048278400001
 10
-9.433934449940151
 20
8.901414303536284
 42
-0.0849517233516558
 10
-4.328650261097047
 20
8.243881902546888
 42
-0.3316728536074946
 10
-3.971518477043218
 20
7.764727780293924
 42
0.0
 10
-3.786967167977524
 20
3.04551677866311
 42
-0.4823116593732201
 10
-3.958719949345167
 20
2.885456299310245
 42
0.0
 97
        1
330
28FD
 92
       22
 72
     1
 73
     1
 93
       10
 10
-3.961407407853585
 20
1.877965516015706
 42
-0.3823944314809904
 10
-3.786235406258811
 20
1.676608190840512
 42
0.4552489077013692
 10
0.3548482293435912
 20
-0.8468197585588074
 42
-0.6319644469852688
 10
0.6183987586691729
 20
-1.081394757213615
 42
-0.2791002516938485
 10
-2.195372379585012
 20
-2.978214641504919
 42
-0.0278583667188072
 10
-2.617065430905086
 20
-2.953071966354983
 42
0.0
 10
-9.474287521663001
 20
-1.462963370272404
 42
-0.3015521592859336
 10
-9.932724262498396
 20
-0.7719562314488258
 42
0.0
 10
-9.932724262498396
 20
2.439550124837637
 42
-0.4583896795937123
 10
-9.674447994945621
 20
2.662075831257645
 42
0.0
 97
        1
330
28FE
 75
     0
 76
     1
 52
0.0
 41
0.58
 77
     0
 78
     3
 53
90.0
 43
-132.0738136319606
 44
-130.3227156093011
 45
-0.41012193298
 46
0.41012193298
 79
     2
 49
0.10875
 49
-0.7114938665399999
 53
45.0
 43
-132.0738136319606
 44
-130.3227156093011
 45
-0.4101219330881975
 46
0.4101219330881976
 79
     2
 49
0.10875
 49
-0.47125
 53
135.0
 43
-132.0738136319606
 44
-130.3227156093011
 45
-0.4101219330881976
 46
-0.4101219330881975
 79
     2
 49
0.10875
 49
-0.47125
 47
0.0448918866780854
 98
        3
 10
-5.189863374340191
 20
2.56511015622226
 10
-5.189863374340191
 20
2.56511015622226
 10
-5.189863374340191
 20
2.56511015622226
  0
LWPOLYLINE
  5
28FD
102
{ACAD_REACTORS
330
28FC
102
}
330
28F9
100
AcDbEntity
  8
BEMATING
100
AcDbPolyline
 90
       14
 70
     1
 43
0.0
 10
-9.932724262498396
 20
8.401415768091965
 10
-9.932724262498396
 20
3.967043008106998
 42
0.3782424518883232
 10
-9.669934682875037
 20
3.669359645092868
 10
-7.013050019214489
 20
3.298817894559192
 42
0.2360679774992166
 10
-6.928706399694902
 20
3.32858623085292
 10
-6.824517222640253
 20
3.436496449945821
 42
-0.5000000000000969
 10
-6.665752762365883
 20
3.416650892411666
 10
-6.591331921612237
 20
3.286414421092899
 42
0.2360679775002735
 10
-6.516911080858591
 20
3.236800527257287
 10
-3.95511428579357
 20
2.88496109429559
 42
0.451123492285309
 10
-3.786509075605408
 20
3.033802775802882
 10
-3.971518477043218
 20
7.764727780293924
 42
0.3316728536076049
 10
-4.328650261097237
 20
8.243881902546945
 42
0.0849517233516525
 10
-9.433934449940153
 20
8.901414303536284
 42
0.4135048278399993
  0
LWPOLYLINE
  5
28FE
102
{ACAD_REACTORS
330
28FC
102
}
330
28F9
100
AcDbEntity
  8
BEMATING
100
AcDbPolyline
 90
       10
 70
     1
 43
0.0
 10
-9.932724262498396
 20
2.439550124837637
 10
-9.932724262498396
 20
-0.7719562314488258
 42
0.3015521592859336
 10
-9.474287521663001
 20
-1.462963370272404
 10
-2.617065430905086
 20
-2.953071966354983
 42
0.0278583667188065
 10
-2.195372379585023
 20
-2.978214641504919
 42
0.2791002516938494
 10
0.6183987586691729
 20
-1.081394757213615
 42
0.6319644469852754
 10
0.3548482293435882
 20
-0.8468197585588086
 42
-0.4552489077013689
 10
-3.786235406258811
 20
1.676608190840511
 42
0.3823944314809918
 10
-3.961407407853585
 20
1.877965516015706
 10
-9.679816447215699
 20
2.662812647098121
 42
0.4511234922852938
  0
ENDBLK
  5
28FF
330
28F9
100
AcDbEntity
  8
0
100
AcDbBlockEnd
  0
BLOCK
  5
2F25
330
2F24
100
AcDbEntity
  8
0
100
AcDbBlockBegin
  2
*D30
 70
     1
 10
0.0
 20
0.0
 30
0.0
  3
*D30
  1

  0
LINE
  5
2FB3
330
2F24
100
AcDbEntity
  8
BEMATING
 62
     7
440
 16777216
370
    -2
100
AcDbLine
 10
442.0852294942969
 20
2541.268268828623
 30
0.0
 11
442.0852294942969
 21
2531.268268828622
 31
0.0
  0
LINE
  5
2FB4
330
2F24
100
AcDbEntity
  8
BEMATING
 62
     7
440
 16777216
370
    -2
100
AcDbLine
 10
507.0852294942972
 20
2541.268268828623
 30
0.0
 11
507.0852294942972
 21
2531.268268828622
 31
0.0
  0
LINE
  5
2FB5
330
2F24
100
AcDbEntity
  8
BEMATING
 62
     7
440
 16777216
370
    -2
100
AcDbLine
 10
443.0852294942969
 20
2533.268268828622
 30
0.0
 11
471.6209437800113
 21
2533.268268828622
 31
0.0
  0
LINE
  5
2FB6
330
2F24
100
AcDbEntity
  8
BEMATING
 62
     7
440
 16777216
370
    -2
100
AcDbLine
 10
506.0852294942971
 20
2533.268268828622
 30
0.0
 11
477.5495152085828
 21
2533.268268828622
 31
0.0
  0
INSERT
  5
2FB7
330
2F24
100
AcDbEntity
  8
BEMATING
 62
     7
440
 16777216
370
    -2
100
AcDbBlockReference
  2
THICK2
 10
442.0852294942969
 20
2533.268268828622
 30
0.0
 50
180.0
  0
INSERT
  5
2FB8
330
2F24
100
AcDbEntity
  8
BEMATING
 62
     7
440
 16777216
370
    -2
100
AcDbBlockReference
  2
THICK2
 10
507.0852294942972
 20
2533.268268828622
 30
0.0
  0
MTEXT
  5
2FB9
330
2F24
100
AcDbEntity
  8
BEMATING
 62
     7
440
 16777216
100
AcDbMText
 10
474.585229494297
 20
2533.268268828622
 30
0.0
 40
2.5
 41
0.0
 71
     5
 72
     1
  1
\A1;65
  7
MAATVOERING
 73
     1
 44
1.0
  0
POINT
  5
2FBA
330
2F24
100
AcDbEntity
  8
DEFPOINTS
 62
     0
440
 16777216
100
AcDbPoint
 10
442.0852294942969
 20
2548.268268828623
 30
0.0
  0
POINT
  5
2FBB
330
2F24
100
AcDbEntity
  8
DEFPOINTS
 62
     0
440
 16777216
100
AcDbPoint
 10
507.0852294942972
 20
2548.268268828622
 30
0.0
  0
POINT
  5
2FBC
330
2F24
100
AcDbEntity
  8
DEFPOINTS
 62
     0
440
 16777216
100
AcDbPoint
 10
507.0852294942972
 20
2533.268268828622
 30
0.0
  0
ENDBLK
  5
2F26
330
2F24
100
AcDbEntity
  8
0
100
AcDbBlockEnd
  0
BLOCK
  5
2F32
330
2F31
100
AcDbEntity
  8
0
100
AcDbBlockBegin
  2
*D31
 70
     1
 10
0.0
 20
0.0
 30
0.0
  3
*D31
  1

  0
LINE
  5
2FBD
330
2F31
100
AcDbEntity
  8
BEMATING
 62
     7
440
 16777216
370
    -2
100
AcDbLine
 10
457.0852294942971
 20
2541.268268828623
 30
0.0
 11
457.0852294942971
 21
2536.268268828623
 31
0.0
  0
LINE
  5
2FBE
330
2F31
100
AcDbEntity
  8
BEMATING
 62
     7
440
 16777216
370
    -2
100
AcDbLine
 10
492.0852294942971
 20
2541.268268828623
 30
0.0
 11
492.0852294942971
 21
2536.268268828623
 31
0.0
  0
LINE
  5
2FBF
330
2F31
100
AcDbEntity
  8
BEMATING
 62
     7
440
 16777216
370
    -2
100
AcDbLine
 10
458.0852294942971
 20
2538.268268828623
 30
0.0
 11
471.5614199704876
 21
2538.268268828623
 31
0.0
  0
LINE
  5
2FC0
330
2F31
100
AcDbEntity
  8
BEMATING
 62
     7
440
 16777216
370
    -2
100
AcDbLine
 10
491.0852294942971
 20
2538.268268828623
 30
0.0
 11
477.6090390181066
 21
2538.268268828623
 31
0.0
  0
INSERT
  5
2FC1
330
2F31
100
AcDbEntity
  8
BEMATING
 62
     7
440
 16777216
370
    -2
100
AcDbBlockReference
  2
THICK2
 10
457.0852294942971
 20
2538.268268828623
 30
0.0
 50
180.0
  0
INSERT
  5
2FC2
330
2F31
100
AcDbEntity
  8
BEMATING
 62
     7
440
 16777216
370
    -2
100
AcDbBlockReference
  2
THICK2
 10
492.0852294942971
 20
2538.268268828623
 30
0.0
  0
MTEXT
  5
2FC3
330
2F31
100
AcDbEntity
  8
BEMATING
 62
     7
440
 16777216
100
AcDbMText
 10
474.5852294942971
 20
2538.268268828623
 30
0.0
 40
2.5
 41
0.0
 71
     5
 72
     1
  1
\A1;35
  7
MAATVOERING
 73
     1
 44
1.0
  0
POINT
  5
2FC4
330
2F31
100
AcDbEntity
  8
DEFPOINTS
 62
     0
440
 16777216
100
AcDbPoint
 10
457.0852294942971
 20
2548.268268828623
 30
0.0
  0
POINT
  5
2FC5
330
2F31
100
AcDbEntity
  8
DEFPOINTS
 62
     0
440
 16777216
100
AcDbPoint
 10
492.0852294942971
 20
2548.268268828622
 30
0.0
  0
POINT
  5
2FC6
330
2F31
100
AcDbEntity
  8
DEFPOINTS
 62
     0
440
 16777216
100
AcDbPoint
 10
492.0852294942971
 20
2538.268268828623
 30
0.0
  0
ENDBLK
  5
2F33
330
2F31
100
AcDbEntity
  8
0
100
AcDbBlockEnd
  0
BLOCK
  5
2F3F
330
2F3E
100
AcDbEntity
  8
0
100
AcDbBlockBegin
  2
*D32
 70
     1
 10
0.0
 20
0.0
 30
0.0
  3
*D32
  1

  0
LINE
  5
2FC7
330
2F3E
100
AcDbEntity
  8
BEMATING
 62
     7
440
 16777216
370
    -2
100
AcDbLine
 10
434.3849784452585
 20
2595.774815347845
 30
0.0
 11
429.3849784452584
 21
2595.774815347845
 31
0.0
  0
LINE
  5
2FC8
330
2F3E
100
AcDbEntity
  8
BEMATING
 62
     7
440
 16777216
370
    -2
100
AcDbLine
 10
434.3849784452581
 20
2549.268268828623
 30
0.0
 11
429.3849784452584
 21
2549.268268828623
 31
0.0
  0
LINE
  5
2FC9
330
2F3E
100
AcDbEntity
  8
BEMATING
 62
     7
440
 16777216
370
    -2
100
AcDbLine
 10
431.3849784452584
 20
2594.774815347845
 30
0.0
 11
431.3849784452584
 21
2577.331065897757
 31
0.0
  0
LINE
  5
2FCA
330
2F3E
100
AcDbEntity
  8
BEMATING
 62
     7
440
 16777216
370
    -2
100
AcDbLine
 10
431.3849784452584
 20
2550.268268828622
 30
0.0
 11
431.3849784452584
 21
2567.71201827871
 31
0.0
  0
INSERT
  5
2FCB
330
2F3E
100
AcDbEntity
  8
BEMATING
 62
     7
440
 16777216
370
    -2
100
AcDbBlockReference
  2
THICK2
 10
431.3849784452584
 20
2595.774815347845
 30
0.0
 50
90.0
  0
INSERT
  5
2FCC
330
2F3E
100
AcDbEntity
  8
BEMATING
 62
     7
440
 16777216
370
    -2
100
AcDbBlockReference
  2
THICK2
 10
431.3849784452584
 20
2549.268268828623
 30
0.0
 50
270.0
  0
MTEXT
  5
2FCD
330
2F3E
100
AcDbEntity
  8
BEMATING
 62
     7
440
 16777216
100
AcDbMText
 10
431.384978445258
 20
2572.521542088234
 30
0.0
 40
2.5
 41
0.0
 71
     5
 72
     1
  1
\A1;46.5
  7
MAATVOERING
 11
0.0000000000000001
 21
1.0
 31
0.0
 73
     1
 44
1.0
  0
POINT
  5
2FCE
330
2F3E
100
AcDbEntity
  8
DEFPOINTS
 62
     0
440
 16777216
100
AcDbPoint
 10
441.3849784452584
 20
2595.774815347845
 30
0.0
  0
POINT
  5
2FCF
330
2F3E
100
AcDbEntity
  8
DEFPOINTS
 62
     0
440
 16777216
100
AcDbPoint
 10
441.3849784452581
 20
2549.268268828623
 30
0.0
  0
POINT
  5
2FD0
330
2F3E
100
AcDbEntity
  8
DEFPOINTS
 62
     0
440
 16777216
100
AcDbPoint
 10
431.3849784452584
 20
2549.268268828623
 30
0.0
  0
ENDBLK
  5
2F40
330
2F3E
100
AcDbEntity
  8
0
100
AcDbBlockEnd
  0
BLOCK
  5
2F4C
330
2F4B
100
AcDbEntity
  8
0
100
AcDbBlockBegin
  2
*D33
 70
     1
 10
0.0
 20
0.0
 30
0.0
  3
*D33
  1

  0
LINE
  5
2FD1
330
2F4B
100
AcDbEntity
  8
BEMATING
 62
     7
440
 16777216
370
    -2
100
AcDbLine
 10
442.0852294942969
 20
2541.268268828623
 30
0.0
 11
442.0852294942969
 21
2536.268268828623
 31
0.0
  0
LINE
  5
2FD2
330
2F4B
100
AcDbEntity
  8
BEMATING
 62
     7
440
 16777216
370
    -2
100
AcDbLine
 10
457.0852294942971
 20
2541.268268828623
 30
0.0
 11
457.0852294942971
 21
2536.268268828623
 31
0.0
  0
LINE
  5
2FD3
330
2F4B
100
AcDbEntity
  8
BEMATING
 62
     7
440
 16777216
370
    -2
100
AcDbLine
 10
443.0852294942969
 20
2538.268268828623
 30
0.0
 11
446.7399913990589
 21
2538.268268828623
 31
0.0
  0
LINE
  5
2FD4
330
2F4B
100
AcDbEntity
  8
BEMATING
 62
     7
440
 16777216
370
    -2
100
AcDbLine
 10
456.0852294942971
 20
2538.268268828623
 30
0.0
 11
452.4304675895351
 21
2538.268268828623
 31
0.0
  0
INSERT
  5
2FD5
330
2F4B
100
AcDbEntity
  8
BEMATING
 62
     7
440
 16777216
370
    -2
100
AcDbBlockReference
  2
THICK2
 10
442.0852294942969
 20
2538.268268828623
 30
0.0
 50
180.0
  0
INSERT
  5
2FD6
330
2F4B
100
AcDbEntity
  8
BEMATING
 62
     7
440
 16777216
370
    -2
100
AcDbBlockReference
  2
THICK2
 10
457.0852294942971
 20
2538.268268828623
 30
0.0
  0
MTEXT
  5
2FD7
330
2F4B
100
AcDbEntity
  8
BEMATING
 62
     7
440
 16777216
100
AcDbMText
 10
449.585229494297
 20
2538.268268828623
 30
0.0
 40
2.5
 41
0.0
 71
     5
 72
     1
  1
\A1;15
  7
MAATVOERING
 73
     1
 44
1.0
  0
POINT
  5
2FD8
330
2F4B
100
AcDbEntity
  8
DEFPOINTS
 62
     0
440
 16777216
100
AcDbPoint
 10
442.0852294942969
 20
2548.268268828623
 30
0.0
  0
POINT
  5
2FD9
330
2F4B
100
AcDbEntity
  8
DEFPOINTS
 62
     0
440
 16777216
100
AcDbPoint
 10
457.0852294942971
 20
2548.268268828623
 30
0.0
  0
POINT
  5
2FDA
330
2F4B
100
AcDbEntity
  8
DEFPOINTS
 62
     0
440
 16777216
100
AcDbPoint
 10
457.0852294942971
 20
2538.268268828623
 30
0.0
  0
ENDBLK
  5
2F4D
330
2F4B
100
AcDbEntity
  8
0
100
AcDbBlockEnd
  0
BLOCK
  5
2F59
330
2F58
100
AcDbEntity
  8
0
100
AcDbBlockBegin
  2
*D34
 70
     1
 10
0.0
 20
0.0
 30
0.0
  3
*D34
  1

  0
LINE
  5
2FDB
330
2F58
100
AcDbEntity
  8
BEMATING
 62
     7
440
 16777216
370
    -2
100
AcDbLine
 10
492.0852294942971
 20
2541.268268828623
 30
0.0
 11
492.0852294942971
 21
2536.268268828623
 31
0.0
  0
LINE
  5
2FDC
330
2F58
100
AcDbEntity
  8
BEMATING
 62
     7
440
 16777216
370
    -2
100
AcDbLine
 10
507.0852294942972
 20
2541.268268828623
 30
0.0
 11
507.0852294942972
 21
2536.268268828623
 31
0.0
  0
LINE
  5
2FDD
330
2F58
100
AcDbEntity
  8
BEMATING
 62
     7
440
 16777216
370
    -2
100
AcDbLine
 10
493.0852294942972
 20
2538.268268828623
 30
0.0
 11
496.7399913990591
 21
2538.268268828623
 31
0.0
  0
LINE
  5
2FDE
330
2F58
100
AcDbEntity
  8
BEMATING
 62
     7
440
 16777216
370
    -2
100
AcDbLine
 10
506.0852294942971
 20
2538.268268828623
 30
0.0
 11
502.4304675895352
 21
2538.268268828623
 31
0.0
  0
INSERT
  5
2FDF
330
2F58
100
AcDbEntity
  8
BEMATING
 62
     7
440
 16777216
370
    -2
100
AcDbBlockReference
  2
THICK2
 10
492.0852294942971
 20
2538.268268828623
 30
0.0
 50
180.0
  0
INSERT
  5
2FE0
330
2F58
100
AcDbEntity
  8
BEMATING
 62
     7
440
 16777216
370
    -2
100
AcDbBlockReference
  2
THICK2
 10
507.0852294942972
 20
2538.268268828623
 30
0.0
  0
MTEXT
  5
2FE1
330
2F58
100
AcDbEntity
  8
BEMATING
 62
     7
440
 16777216
100
AcDbMText
 10
499.5852294942972
 20
2538.268268828623
 30
0.0
 40
2.5
 41
0.0
 71
     5
 72
     1
  1
\A1;15
  7
MAATVOERING
 73
     1
 44
1.0
  0
POINT
  5
2FE2
330
2F58
100
AcDbEntity
  8
DEFPOINTS
 62
     0
440
 16777216
100
AcDbPoint
 10
492.0852294942971
 20
2548.268268828622
 30
0.0
  0
POINT
  5
2FE3
330
2F58
100
AcDbEntity
  8
DEFPOINTS
 62
     0
440
 16777216
100
AcDbPoint
 10
507.0852294942972
 20
2548.268268828622
 30
0.0
  0
POINT
  5
2FE4
330
2F58
100
AcDbEntity
  8
DEFPOINTS
 62
     0
440
 16777216
100
AcDbPoint
 10
507.0852294942972
 20
2538.268268828623
 30
0.0
  0
ENDBLK
  5
2F5A
330
2F58
100
AcDbEntity
  8
0
100
AcDbBlockEnd
  0
BLOCK
  5
2F66
330
2F65
100
AcDbEntity
  8
0
100
AcDbBlockBegin
  2
*D35
 70
     1
 10
0.0
 20
0.0
 30
0.0
  3
*D35
  1

  0
LINE
  5
2FE5
330
2F65
100
AcDbEntity
  8
BEMATING
 62
     7
440
 16777216
370
    -2
100
AcDbLine
 10
434.3849784452581
 20
2549.268268828623
 30
0.0
 11
424.3849784452585
 21
2549.268268828623
 31
0.0
  0
LINE
  5
2FE6
330
2F65
100
AcDbEntity
  8
BEMATING
 62
     7
440
 16777216
370
    -2
100
AcDbLine
 10
434.3849784452585
 20
2722.274815347845
 30
0.0
 11
424.3849784452585
 21
2722.274815347845
 31
0.0
  0
LINE
  5
2FE7
330
2F65
100
AcDbEntity
  8
BEMATING
 62
     7
440
 16777216
370
    -2
100
AcDbLine
 10
426.3849784452585
 20
2550.268268828622
 30
0.0
 11
426.3849784452585
 21
2633.939050938737
 31
0.0
  0
LINE
  5
2FE8
330
2F65
100
AcDbEntity
  8
BEMATING
 62
     7
440
 16777216
370
    -2
100
AcDbLine
 10
426.3849784452586
 20
2721.274815347845
 30
0.0
 11
426.3849784452585
 21
2640.105717605405
 31
0.0
  0
MTEXT
  5
2FE9
330
2F65
100
AcDbEntity
  8
BEMATING
 62
     7
440
 16777216
100
AcDbMText
 10
426.2947998839743
 20
2637.022384272071
 30
0.0
 40
2.5
 41
0.0
 71
     5
 72
     1
  1
\A1;PB
  7
MAATVOERING
 11
0.0000000000000001
 21
1.0
 31
0.0
 73
     1
 44
1.0
  0
INSERT
  5
2FEA
330
2F65
100
AcDbEntity
  8
BEMATING
 62
     7
440
 16777216
370
    -2
100
AcDbBlockReference
  2
THICK2
 10
426.3849784452585
 20
2549.268268828623
 30
0.0
 50
270.0
  0
INSERT
  5
2FEB
330
2F65
100
AcDbEntity
  8
BEMATING
 62
     7
440
 16777216
370
    -2
100
AcDbBlockReference
  2
THICK2
 10
426.3849784452586
 20
2722.274815347845
 30
0.0
 50
90.0
  0
POINT
  5
2FEC
330
2F65
100
AcDbEntity
  8
DEFPOINTS
 62
     0
440
 16777216
100
AcDbPoint
 10
441.3849784452581
 20
2549.268268828623
 30
0.0
  0
POINT
  5
2FED
330
2F65
100
AcDbEntity
  8
DEFPOINTS
 62
     0
440
 16777216
100
AcDbPoint
 10
441.3849784452585
 20
2722.274815347845
 30
0.0
  0
POINT
  5
2FEE
330
2F65
100
AcDbEntity
  8
DEFPOINTS
 62
     0
440
 16777216
100
AcDbPoint
 10
426.3849784452586
 20
2722.274815347845
 30
0.0
  0
ENDBLK
  5
2F67
330
2F65
100
AcDbEntity
  8
0
100
AcDbBlockEnd
  0
BLOCK
  5
2F73
330
2F72
100
AcDbEntity
  8
0
100
AcDbBlockBegin
  2
*D36
 70
     1
 10
0.0
 20
0.0
 30
0.0
  3
*D36
  1

  0
LINE
  5
2FEF
330
2F72
100
AcDbEntity
  8
BEMATING
 62
     7
440
 16777216
370
    -2
100
AcDbLine
 10
442.0852294942969
 20
2730.148229015069
 30
0.0
 11
442.0852294942969
 21
2740.148229015069
 31
0.0
  0
LINE
  5
2FF0
330
2F72
100
AcDbEntity
  8
BEMATING
 62
     7
440
 16777216
370
    -2
100
AcDbLine
 10
507.0852294942972
 20
2730.148229015069
 30
0.0
 11
507.0852294942972
 21
2740.148229015069
 31
0.0
  0
LINE
  5
2FF1
330
2F72
100
AcDbEntity
  8
BEMATING
 62
     7
440
 16777216
370
    -2
100
AcDbLine
 10
443.0852294942969
 20
2738.148229015069
 30
0.0
 11
471.6209437800113
 21
2738.148229015069
 31
0.0
  0
LINE
  5
2FF2
330
2F72
100
AcDbEntity
  8
BEMATING
 62
     7
440
 16777216
370
    -2
100
AcDbLine
 10
506.0852294942971
 20
2738.148229015069
 30
0.0
 11
477.5495152085828
 21
2738.148229015069
 31
0.0
  0
INSERT
  5
2FF3
330
2F72
100
AcDbEntity
  8
BEMATING
 62
     7
440
 16777216
370
    -2
100
AcDbBlockReference
  2
THICK2
 10
442.0852294942969
 20
2738.148229015069
 30
0.0
 50
180.0
  0
INSERT
  5
2FF4
330
2F72
100
AcDbEntity
  8
BEMATING
 62
     7
440
 16777216
370
    -2
100
AcDbBlockReference
  2
THICK2
 10
507.0852294942972
 20
2738.148229015069
 30
0.0
  0
MTEXT
  5
2FF5
330
2F72
100
AcDbEntity
  8
BEMATING
 62
     7
440
 16777216
100
AcDbMText
 10
474.585229494297
 20
2738.148229015069
 30
0.0
 40
2.5
 41
0.0
 71
     5
 72
     1
  1
\A1;65
  7
MAATVOERING
 73
     1
 44
1.0
  0
POINT
  5
2FF6
330
2F72
100
AcDbEntity
  8
DEFPOINTS
 62
     0
440
 16777216
100
AcDbPoint
 10
442.0852294942969
 20
2723.148229015069
 30
0.0
  0
POINT
  5
2FF7
330
2F72
100
AcDbEntity
  8
DEFPOINTS
 62
     0
440
 16777216
100
AcDbPoint
 10
507.0852294942972
 20
2723.148229015069
 30
0.0
  0
POINT
  5
2FF8
330
2F72
100
AcDbEntity
  8
DEFPOINTS
 62
     0
440
 16777216
100
AcDbPoint
 10
507.0852294942972
 20
2738.148229015069
 30
0.0
  0
ENDBLK
  5
2F74
330
2F72
100
AcDbEntity
  8
0
100
AcDbBlockEnd
  0
BLOCK
  5
2F80
330
2F7F
100
AcDbEntity
  8
0
100
AcDbBlockBegin
  2
*D37
 70
     1
 10
0.0
 20
0.0
 30
0.0
  3
*D37
  1

  0
LINE
  5
2FF9
330
2F7F
100
AcDbEntity
  8
BEMATING
 62
     7
440
 16777216
370
    -2
100
AcDbLine
 10
457.0852294942971
 20
2730.148229015069
 30
0.0
 11
457.0852294942971
 21
2735.148229015069
 31
0.0
  0
LINE
  5
2FFA
330
2F7F
100
AcDbEntity
  8
BEMATING
 62
     7
440
 16777216
370
    -2
100
AcDbLine
 10
492.0852294942971
 20
2730.148229015069
 30
0.0
 11
492.0852294942971
 21
2735.148229015069
 31
0.0
  0
LINE
  5
2FFB
330
2F7F
100
AcDbEntity
  8
BEMATING
 62
     7
440
 16777216
370
    -2
100
AcDbLine
 10
458.0852294942971
 20
2733.148229015069
 30
0.0
 11
471.5614199704876
 21
2733.148229015069
 31
0.0
  0
LINE
  5
2FFC
330
2F7F
100
AcDbEntity
  8
BEMATING
 62
     7
440
 16777216
370
    -2
100
AcDbLine
 10
491.0852294942971
 20
2733.148229015069
 30
0.0
 11
477.6090390181066
 21
2733.148229015069
 31
0.0
  0
INSERT
  5
2FFD
330
2F7F
100
AcDbEntity
  8
BEMATING
 62
     7
440
 16777216
370
    -2
100
AcDbBlockReference
  2
THICK2
 10
457.0852294942971
 20
2733.148229015069
 30
0.0
 50
180.0
  0
INSERT
  5
2FFE
330
2F7F
100
AcDbEntity
  8
BEMATING
 62
     7
440
 16777216
370
    -2
100
AcDbBlockReference
  2
THICK2
 10
492.0852294942971
 20
2733.148229015069
 30
0.0
  0
MTEXT
  5
2FFF
330
2F7F
100
AcDbEntity
  8
BEMATING
 62
     7
440
 16777216
100
AcDbMText
 10
474.5852294942971
 20
2733.148229015069
 30
0.0
 40
2.5
 41
0.0
 71
     5
 72
     1
  1
\A1;35
  7
MAATVOERING
 73
     1
 44
1.0
  0
POINT
  5
3000
330
2F7F
100
AcDbEntity
  8
DEFPOINTS
 62
     0
440
 16777216
100
AcDbPoint
 10
457.0852294942971
 20
2723.148229015069
 30
0.0
  0
POINT
  5
3001
330
2F7F
100
AcDbEntity
  8
DEFPOINTS
 62
     0
440
 16777216
100
AcDbPoint
 10
492.0852294942971
 20
2723.148229015069
 30
0.0
  0
POINT
  5
3002
330
2F7F
100
AcDbEntity
  8
DEFPOINTS
 62
     0
440
 16777216
100
AcDbPoint
 10
492.0852294942971
 20
2733.148229015069
 30
0.0
  0
ENDBLK
  5
2F81
330
2F7F
100
AcDbEntity
  8
0
100
AcDbBlockEnd
  0
BLOCK
  5
2F8D
330
2F8C
100
AcDbEntity
  8
0
100
AcDbBlockBegin
  2
*D38
 70
     1
 10
0.0
 20
0.0
 30
0.0
  3
*D38
  1

  0
LINE
  5
3003
330
2F8C
100
AcDbEntity
  8
BEMATING
 62
     7
440
 16777216
370
    -2
100
AcDbLine
 10
442.0852294942969
 20
2730.148229015069
 30
0.0
 11
442.0852294942969
 21
2735.148229015069
 31
0.0
  0
LINE
  5
3004
330
2F8C
100
AcDbEntity
  8
BEMATING
 62
     7
440
 16777216
370
    -2
100
AcDbLine
 10
457.0852294942971
 20
2730.148229015069
 30
0.0
 11
457.0852294942971
 21
2735.148229015069
 31
0.0
  0
LINE
  5
3005
330
2F8C
100
AcDbEntity
  8
BEMATING
 62
     7
440
 16777216
370
    -2
100
AcDbLine
 10
443.0852294942969
 20
2733.148229015069
 30
0.0
 11
446.7399913990589
 21
2733.148229015069
 31
0.0
  0
LINE
  5
3006
330
2F8C
100
AcDbEntity
  8
BEMATING
 62
     7
440
 16777216
370
    -2
100
AcDbLine
 10
456.0852294942971
 20
2733.148229015069
 30
0.0
 11
452.4304675895351
 21
2733.148229015069
 31
0.0
  0
INSERT
  5
3007
330
2F8C
100
AcDbEntity
  8
BEMATING
 62
     7
440
 16777216
370
    -2
100
AcDbBlockReference
  2
THICK2
 10
442.0852294942969
 20
2733.148229015069
 30
0.0
 50
180.0
  0
INSERT
  5
3008
330
2F8C
100
AcDbEntity
  8
BEMATING
 62
     7
440
 16777216
370
    -2
100
AcDbBlockReference
  2
THICK2
 10
457.0852294942971
 20
2733.148229015069
 30
0.0
  0
MTEXT
  5
3009
330
2F8C
100
AcDbEntity
  8
BEMATING
 62
     7
440
 16777216
100
AcDbMText
 10
449.585229494297
 20
2733.148229015069
 30
0.0
 40
2.5
 41
0.0
 71
     5
 72
     1
  1
\A1;15
  7
MAATVOERING
 73
     1
 44
1.0
  0
POINT
  5
300A
330
2F8C
100
AcDbEntity
  8
DEFPOINTS
 62
     0
440
 16777216
100
AcDbPoint
 10
442.0852294942969
 20
2723.148229015069
 30
0.0
  0
POINT
  5
300B
330
2F8C
100
AcDbEntity
  8
DEFPOINTS
 62
     0
440
 16777216
100
AcDbPoint
 10
457.0852294942971
 20
2723.148229015069
 30
0.0
  0
POINT
  5
300C
330
2F8C
100
AcDbEntity
  8
DEFPOINTS
 62
     0
440
 16777216
100
AcDbPoint
 10
457.0852294942971
 20
2733.148229015069
 30
0.0
  0
ENDBLK
  5
2F8E
330
2F8C
100
AcDbEntity
  8
0
100
AcDbBlockEnd
  0
BLOCK
  5
2F9A
330
2F99
100
AcDbEntity
  8
0
100
AcDbBlockBegin
  2
*D39
 70
     1
 10
0.0
 20
0.0
 30
0.0
  3
*D39
  1

  0
LINE
  5
300D
330
2F99
100
AcDbEntity
  8
BEMATING
 62
     7
440
 16777216
370
    -2
100
AcDbLine
 10
492.0852294942971
 20
2730.148229015069
 30
0.0
 11
492.0852294942971
 21
2735.148229015069
 31
0.0
  0
LINE
  5
300E
330
2F99
100
AcDbEntity
  8
BEMATING
 62
     7
440
 16777216
370
    -2
100
AcDbLine
 10
507.0852294942972
 20
2730.148229015069
 30
0.0
 11
507.0852294942972
 21
2735.148229015069
 31
0.0
  0
LINE
  5
300F
330
2F99
100
AcDbEntity
  8
BEMATING
 62
     7
440
 16777216
370
    -2
100
AcDbLine
 10
493.0852294942972
 20
2733.148229015069
 30
0.0
 11
496.7399913990591
 21
2733.148229015069
 31
0.0
  0
LINE
  5
3010
330
2F99
100
AcDbEntity
  8
BEMATING
 62
     7
440
 16777216
370
    -2
100
AcDbLine
 10
506.0852294942971
 20
2733.148229015069
 30
0.0
 11
502.4304675895352
 21
2733.148229015069
 31
0.0
  0
INSERT
  5
3011
330
2F99
100
AcDbEntity
  8
BEMATING
 62
     7
440
 16777216
370
    -2
100
AcDbBlockReference
  2
THICK2
 10
492.0852294942971
 20
2733.148229015069
 30
0.0
 50
180.0
  0
INSERT
  5
3012
330
2F99
100
AcDbEntity
  8
BEMATING
 62
     7
440
 16777216
370
    -2
100
AcDbBlockReference
  2
THICK2
 10
507.0852294942972
 20
2733.148229015069
 30
0.0
  0
MTEXT
  5
3013
330
2F99
100
AcDbEntity
  8
BEMATING
 62
     7
440
 16777216
100
AcDbMText
 10
499.5852294942972
 20
2733.148229015069
 30
0.0
 40
2.5
 41
0.0
 71
     5
 72
     1
  1
\A1;15
  7
MAATVOERING
 73
     1
 44
1.0
  0
POINT
  5
3014
330
2F99
100
AcDbEntity
  8
DEFPOINTS
 62
     0
440
 16777216
100
AcDbPoint
 10
492.0852294942971
 20
2723.148229015069
 30
0.0
  0
POINT
  5
3015
330
2F99
100
AcDbEntity
  8
DEFPOINTS
 62
     0
440
 16777216
100
AcDbPoint
 10
507.0852294942972
 20
2723.148229015069
 30
0.0
  0
POINT
  5
3016
330
2F99
100
AcDbEntity
  8
DEFPOINTS
 62
     0
440
 16777216
100
AcDbPoint
 10
507.0852294942972
 20
2733.148229015069
 30
0.0
  0
ENDBLK
  5
2F9B
330
2F99
100
AcDbEntity
  8
0
100
AcDbBlockEnd
  0
BLOCK
  5
2FA7
330
2FA6
100
AcDbEntity
  8
0
100
AcDbBlockBegin
  2
*D40
 70
     1
 10
0.0
 20
0.0
 30
0.0
  3
*D40
  1

  0
LINE
  5
3017
330
2FA6
100
AcDbEntity
  8
BEMATING
 62
     7
440
 16777216
370
    -2
100
AcDbLine
 10
434.3849784452587
 20
2722.274815347845
 30
0.0
 11
429.3849784452588
 21
2722.274815347845
 31
0.0
  0
LINE
  5
3018
330
2FA6
100
AcDbEntity
  8
BEMATING
 62
     7
440
 16777216
370
    -2
100
AcDbLine
 10
434.3849784452584
 20
2676.268268828622
 30
0.0
 11
429.3849784452588
 21
2676.268268828622
 31
0.0
  0
LINE
  5
3019
330
2FA6
100
AcDbEntity
  8
BEMATING
 62
     7
440
 16777216
370
    -2
100
AcDbLine
 10
431.3849784452588
 20
2721.274815347845
 30
0.0
 11
431.3849784452588
 21
2702.295351612044
 31
0.0
  0
LINE
  5
301A
330
2FA6
100
AcDbEntity
  8
BEMATING
 62
     7
440
 16777216
370
    -2
100
AcDbLine
 10
431.3849784452587
 20
2677.268268828623
 30
0.0
 11
431.3849784452588
 21
2696.247732564424
 31
0.0
  0
INSERT
  5
301B
330
2FA6
100
AcDbEntity
  8
BEMATING
 62
     7
440
 16777216
370
    -2
100
AcDbBlockReference
  2
THICK2
 10
431.3849784452588
 20
2722.274815347845
 30
0.0
 50
90.0
  0
INSERT
  5
301C
330
2FA6
100
AcDbEntity
  8
BEMATING
 62
     7
440
 16777216
370
    -2
100
AcDbBlockReference
  2
THICK2
 10
431.3849784452587
 20
2676.268268828622
 30
0.0
 50
270.0
  0
MTEXT
  5
301D
330
2FA6
100
AcDbEntity
  8
BEMATING
 62
     7
440
 16777216
100
AcDbMText
 10
431.3849784452584
 20
2699.271542088234
 30
0.0
 40
2.5
 41
0.0
 71
     5
 72
     1
  1
\A1;46
  7
MAATVOERING
 11
0.0000000000000001
 21
1.0
 31
0.0
 73
     1
 44
1.0
  0
POINT
  5
301E
330
2FA6
100
AcDbEntity
  8
DEFPOINTS
 62
     0
440
 16777216
100
AcDbPoint
 10
441.3849784452587
 20
2722.274815347845
 30
0.0
  0
POINT
  5
301F
330
2FA6
100
AcDbEntity
  8
DEFPOINTS
 62
     0
440
 16777216
100
AcDbPoint
 10
441.3849784452584
 20
2676.268268828622
 30
0.0
  0
POINT
  5
3020
330
2FA6
100
AcDbEntity
  8
DEFPOINTS
 62
     0
440
 16777216
100
AcDbPoint
 10
431.3849784452587
 20
2676.268268828622
 30
0.0
  0
ENDBLK
  5
2FA8
330
2FA6
100
AcDbEntity
  8
0
100
AcDbBlockEnd
  0
ENDSEC
  0
SECTION
  2
ENTITIES
  0
TEXT
  5
15B1
330
17
100
AcDbEntity
  8
TEXT
100
AcDbText
 10
121.3054751879031
 20
5.806223795906944
 30
0.0
 40
2.5
  1

100
AcDbText
  0
DIMENSION
  5
2EC9
330
17
100
AcDbEntity
  8
BEMATING
100
AcDbDimension
  2
*D30
 10
507.0852294942972
 20
2533.268268828622
 30
0.0
 11
474.585229494297
 21
2533.268268828622
 31
0.0
 70
    32
 71
     5
 42
65.00000000000028
  3
STANDARD
100
AcDbAlignedDimension
 13
442.0852294942969
 23
2548.268268828623
 33
0.0
 14
507.0852294942972
 24
2548.268268828622
 34
0.0
100
AcDbRotatedDimension
1001
ACAD
1000
DSTYLE
1002
{
1070
    41
1040
1.0
1070
    42
1040
7.0
1070
    43
1040
5.0
1070
    44
1040
2.0
1070
    73
1070
     0
1070
    74
1070
     0
1070
    78
1070
     8
1070
   140
1040
2.5
1070
   141
1040
3.0
1070
   143
1040
0.0394
1070
   146
1040
0.8571428571428571
1070
   147
1040
1.0
1070
   172
1070
     1
1070
   173
1070
     1
1070
   176
1070
     7
1070
   177
1070
     7
1070
   178
1070
     7
1070
   271
1070
     1
1070
   272
1070
     1
1070
   279
1070
     2
1070
   284
1070
     8
1070
   285
1070
     8
1070
   286
1070
     8
1070
   340
1005
541
1070
   342
1005
1C
1002
}
  0
LINE
  5
2ECA
330
17
100
AcDbEntity
  8
CONTOUR4-100
 62
     1
100
AcDbLine
 10
505.0852294942972
 20
2674.768268828622
 30
0.0
 11
444.0852294942971
 21
2674.768268828622
 31
0.0
  0
LINE
  5
2ECB
330
17
100
AcDbEntity
  8
CONTOUR4-100
 62
     1
100
AcDbLine
 10
505.0852294942972
 20
2676.268268828622
 30
0.0
 11
444.0852294942971
 21
2676.268268828622
 31
0.0
  0
HATCH
  5
2ECC
330
17
100
AcDbEntity
  8
BEMATING
100
AcDbHatch
 10
0.0
 20
0.0
 30
0.0
210
0.0
220
0.0
230
1.0
  2
SOLID
 70
     1
 71
     1
 91
        1
 92
        7
 72
     1
 73
     1
 93
       28
 10
443.5852294942972
 20
2674.268268828623
 42
-0.4142135623730951
 10
444.0852294942972
 20
2674.768268828622
 42
0.0
 10
505.0852294942973
 20
2674.768268828622
 42
-0.4142135623730285
 10
505.5852294942972
 20
2674.268268828622
 42
0.0
 10
505.5852294942972
 20
2598.268268828622
 42
-1.156783824419646
 10
503.6270608019044
 20
2598.55447287632
 42
0.0
 10
504.4590220348055
 20
2607.268268828622
 42
0.4142135623730907
 10
502.4590220348056
 20
2609.268268828623
 42
0.0
 10
496.5221257645514
 20
2609.268268828623
 42
0.0
 10
496.5221257645514
 20
2607.768268828623
 42
0.0
 10
502.4590220348056
 20
2607.768268828623
 42
-0.5119050875842692
 10
502.9333703014999
 20
2607.110174800006
 42
0.0
 10
502.1564040961695
 20
2598.860558610241
 42
1.127362906322275
 10
507.0852294942972
 20
2598.268268828622
 42
0.0
 10
507.0852294942972
 20
2674.268268828623
 42
0.4142135623730118
 10
505.0852294942973
 20
2676.268268828622
 42
0.0
 10
444.0852294942972
 20
2676.268268828622
 42
0.4142135623730951
 10
442.0852294942973
 20
2674.268268828623
 42
0.0
 10
442.0852294942973
 20
2598.268268828622
 42
1.127362906322168
 10
447.014054892425
 20
2598.860558610241
 42
0.0
 10
446.2370886870945
 20
2607.110174800006
 42
-0.5119050875842692
 10
446.7114369537889
 20
2607.768268828623
 42
0.0
 10
452.6483332240431
 20
2607.768268828623
 42
0.0
 10
452.6483332240431
 20
2609.268268828623
 42
0.0
 10
446.7114369537889
 20
2609.268268828623
 42
0.4142135623730907
 10
444.711436953789
 20
2607.268268828622
 42
0.0
 10
445.5433981866899
 20
2598.55447287632
 42
-1.156783824419474
 10
443.5852294942972
 20
2598.268268828622
 42
0.0
 97
       28
330
2EDB
330
2ECE
330
2EE2
330
2EE4
330
2EFF
330
2EFD
330
2F02
330
2EFB
330
2F0E
330
2EFA
330
2F04
330
2EFC
330
2EFE
330
2EE3
330
2EE1
330
2ECD
330
2ED8
330
2EDA
330
2EEF
330
2EED
330
2EF7
330
2EF1
330
2F0D
330
2EEC
330
2EF8
330
2EEE
330
2EF0
330
2ED9
 75
     0
 76
     1
 47
0.3940677334927234
 98
        1
 10
442.8526767372107
 20
2636.234248582225
450
        0
451
        0
460
0.0
461
0.0
452
        1
462
1.0
453
        2
463
0.0
 63
     5
421
      255
463
1.0
 63
    51
421
 16777113
470
LINEAR
1001
ACAD
1010
0.0
1020
0.0
1030
0.0
  0
LINE
  5
2ECD
102
{ACAD_REACTORS
330
2ECC
102
}
330
17
100
AcDbEntity
  8
CONTOUR1-18
 62
     1
100
AcDbLine
 10
444.0852294942972
 20
2676.268268828622
 30
0.0
 11
505.0852294942973
 21
2676.268268828622
 31
0.0
  0
LINE
  5
2ECE
102
{ACAD_REACTORS
330
2ECC
102
}
330
17
100
AcDbEntity
  8
CONTOUR1-18
 62
     1
100
AcDbLine
 10
444.0852294942972
 20
2674.768268828622
 30
0.0
 11
505.0852294942973
 21
2674.768268828622
 31
0.0
  0
DIMENSION
  5
2ECF
330
17
100
AcDbEntity
  8
BEMATING
100
AcDbDimension
  2
*D31
 10
492.0852294942971
 20
2538.268268828623
 30
0.0
 11
474.5852294942971
 21
2538.268268828623
 31
0.0
 70
    32
 71
     5
 42
35.0
  3
STANDARD
100
AcDbAlignedDimension
 13
457.0852294942971
 23
2548.268268828623
 33
0.0
 14
492.0852294942971
 24
2548.268268828622
 34
0.0
100
AcDbRotatedDimension
1001
ACAD
1000
DSTYLE
1002
{
1070
    41
1040
1.0
1070
    42
1040
7.0
1070
    43
1040
5.0
1070
    44
1040
2.0
1070
    73
1070
     0
1070
    74
1070
     0
1070
    78
1070
     8
1070
   140
1040
2.5
1070
   141
1040
3.0
1070
   143
1040
0.0394
1070
   146
1040
0.8571428571428571
1070
   147
1040
1.0
1070
   172
1070
     1
1070
   173
1070
     1
1070
   176
1070
     7
1070
   177
1070
     7
1070
   178
1070
     7
1070
   271
1070
     1
1070
   272
1070
     1
1070
   279
1070
     2
1070
   284
1070
     8
1070
   285
1070
     8
1070
   286
1070
     8
1070
   340
1005
541
1070
   342
1005
1C
1002
}
  0
LINE
  5
2ED0
330
17
100
AcDbEntity
  8
CONTOUR1-18
 62
     1
100
AcDbLine
 10
458.8352294942973
 20
2551.268268828622
 30
0.0
 11
490.3352294942972
 21
2551.268268828622
 31
0.0
  0
LINE
  5
2ED1
330
17
100
AcDbEntity
  8
CONTOUR1-18
 62
     1
100
AcDbLine
 10
458.8352294942973
 20
2549.768268828622
 30
0.0
 11
490.3352294942972
 21
2549.768268828622
 31
0.0
  0
LINE
  5
2ED2
330
17
100
AcDbEntity
  8
CONTOUR1-18
 62
     1
100
AcDbLine
 10
458.5852294942973
 20
2605.518268828622
 30
0.0
 11
458.5852294942973
 21
2551.518268828623
 31
0.0
  0
LINE
  5
2ED3
330
17
100
AcDbEntity
  8
CONTOUR1-18
 62
     1
100
AcDbLine
 10
457.0852294942972
 20
2605.518268828622
 30
0.0
 11
457.0852294942971
 21
2551.518268828623
 31
0.0
  0
DIMENSION
  5
2ED4
330
17
100
AcDbEntity
  8
BEMATING
100
AcDbDimension
  2
*D32
 10
431.3849784452584
 20
2549.268268828623
 30
0.0
 11
431.384978445258
 21
2572.521542088234
 31
0.0
 70
    32
 71
     5
 42
46.50654651922287
  3
STANDARD
100
AcDbAlignedDimension
 13
441.3849784452584
 23
2595.774815347845
 33
0.0
 14
441.3849784452581
 24
2549.268268828623
 34
0.0
 50
90.0
100
AcDbRotatedDimension
1001
ACAD
1000
DSTYLE
1002
{
1070
    41
1040
1.0
1070
    42
1040
7.0
1070
    43
1040
5.0
1070
    44
1040
2.0
1070
    73
1070
     0
1070
    74
1070
     0
1070
    78
1070
     8
1070
   140
1040
2.5
1070
   141
1040
3.0
1070
   143
1040
0.0394
1070
   146
1040
0.8571428571428571
1070
   147
1040
1.0
1070
   172
1070
     1
1070
   173
1070
     1
1070
   176
1070
     7
1070
   177
1070
     7
1070
   178
1070
     7
1070
   271
1070
     1
1070
   272
1070
     1
1070
   279
1070
     2
1070
   284
1070
     8
1070
   285
1070
     8
1070
   286
1070
     8
1070
   340
1005
541
1070
   342
1005
1C
1002
}
  0
DIMENSION
  5
2ED5
330
17
100
AcDbEntity
  8
BEMATING
100
AcDbDimension
  2
*D33
 10
457.0852294942971
 20
2538.268268828623
 30
0.0
 11
449.585229494297
 21
2538.268268828623
 31
0.0
 70
    32
 71
     5
 42
15.00000000000023
  3
STANDARD
100
AcDbAlignedDimension
 13
442.0852294942969
 23
2548.268268828623
 33
0.0
 14
457.0852294942971
 24
2548.268268828623
 34
0.0
100
AcDbRotatedDimension
1001
ACAD
1000
DSTYLE
1002
{
1070
    41
1040
1.0
1070
    42
1040
7.0
1070
    43
1040
5.0
1070
    44
1040
2.0
1070
    73
1070
     0
1070
    74
1070
     0
1070
    78
1070
     8
1070
   140
1040
2.5
1070
   141
1040
3.0
1070
   143
1040
0.0394
1070
   146
1040
0.8571428571428571
1070
   147
1040
1.0
1070
   172
1070
     1
1070
   173
1070
     1
1070
   176
1070
     7
1070
   177
1070
     7
1070
   178
1070
     7
1070
   271
1070
     1
1070
   272
1070
     1
1070
   279
1070
     2
1070
   284
1070
     8
1070
   285
1070
     8
1070
   286
1070
     8
1070
   340
1005
541
1070
   342
1005
1C
1002
}
  0
ARC
  5
2ED6
330
17
100
AcDbEntity
  8
CONTOUR1-18
 62
     1
100
AcDbCircle
 10
458.8352294942973
 20
2551.518268828623
 30
0.0
 40
0.25
100
AcDbArc
 50
180.0
 51
270.0
  0
ARC
  5
2ED7
330
17
100
AcDbEntity
  8
CONTOUR1-18
 62
     1
100
AcDbCircle
 10
458.8352294942973
 20
2551.518268828623
 30
0.0
 40
1.75
100
AcDbArc
 50
180.0
 51
270.0
  0
ARC
  5
2ED8
102
{ACAD_REACTORS
330
2ECC
102
}
330
17
100
AcDbEntity
  8
CONTOUR1-18
 62
     1
100
AcDbCircle
 10
444.0852294942972
 20
2674.268268828623
 30
0.0
 40
2.0
100
AcDbArc
 50
89.99999999999674
 51
180.0
  0
LWPOLYLINE
  5
2ED9
102
{ACAD_REACTORS
330
2ECC
102
}
330
17
100
AcDbEntity
  8
CONTOUR1-18
 62
     1
100
AcDbPolyline
 90
        2
 70
     0
 43
0.0
 10
443.5852294942972
 20
2674.268268828623
 10
443.5852294942972
 20
2598.268268828622
  0
LWPOLYLINE
  5
2EDA
102
{ACAD_REACTORS
330
2ECC
102
}
330
17
100
AcDbEntity
  8
CONTOUR1-18
 62
     1
100
AcDbPolyline
 90
        2
 70
     0
 43
0.0
 10
442.0852294942973
 20
2674.268268828623
 10
442.0852294942973
 20
2598.268268828622
  0
ARC
  5
2EDB
102
{ACAD_REACTORS
330
2ECC
102
}
330
17
100
AcDbEntity
  8
CONTOUR1-18
 62
     1
100
AcDbCircle
 10
444.0852294942972
 20
2674.268268828623
 30
0.0
 40
0.5
100
AcDbArc
 50
89.99999999999674
 51
180.0
  0
LINE
  5
2EDC
330
17
100
AcDbEntity
  8
CONTOUR1-18
 62
     1
100
AcDbLine
 10
490.5852294942973
 20
2605.518268828622
 30
0.0
 11
490.5852294942972
 21
2551.511804371871
 31
0.0
  0
LINE
  5
2EDD
330
17
100
AcDbEntity
  8
CONTOUR1-18
 62
     1
100
AcDbLine
 10
492.0852294942973
 20
2605.518268828622
 30
0.0
 11
492.0852294942972
 21
2551.518582470633
 31
0.0
  0
DIMENSION
  5
2EDE
330
17
100
AcDbEntity
  8
BEMATING
100
AcDbDimension
  2
*D34
 10
507.0852294942972
 20
2538.268268828623
 30
0.0
 11
499.5852294942972
 21
2538.268268828623
 31
0.0
 70
    32
 71
     5
 42
15.00000000000006
  3
STANDARD
100
AcDbAlignedDimension
 13
492.0852294942971
 23
2548.268268828622
 33
0.0
 14
507.0852294942972
 24
2548.268268828622
 34
0.0
100
AcDbRotatedDimension
1001
ACAD
1000
DSTYLE
1002
{
1070
    41
1040
1.0
1070
    42
1040
7.0
1070
    43
1040
5.0
1070
    44
1040
2.0
1070
    73
1070
     0
1070
    74
1070
     0
1070
    78
1070
     8
1070
   140
1040
2.5
1070
   141
1040
3.0
1070
   143
1040
0.0394
1070
   146
1040
0.8571428571428571
1070
   147
1040
1.0
1070
   172
1070
     1
1070
   173
1070
     1
1070
   176
1070
     7
1070
   177
1070
     7
1070
   178
1070
     7
1070
   271
1070
     1
1070
   272
1070
     1
1070
   279
1070
     2
1070
   284
1070
     8
1070
   285
1070
     8
1070
   286
1070
     8
1070
   340
1005
541
1070
   342
1005
1C
1002
}
  0
ARC
  5
2EDF
330
17
100
AcDbEntity
  8
CONTOUR1-18
 62
     1
100
AcDbCircle
 10
490.3352294942972
 20
2551.518268828623
 30
0.0
 40
1.75
100
AcDbArc
 50
270.0
 51
0.0
  0
ARC
  5
2EE0
330
17
100
AcDbEntity
  8
CONTOUR1-18
 62
     1
100
AcDbCircle
 10
490.3352294942972
 20
2551.518268828623
 30
0.0
 40
0.25
100
AcDbArc
 50
270.0
 51
0.0
  0
ARC
  5
2EE1
102
{ACAD_REACTORS
330
2ECC
102
}
330
17
100
AcDbEntity
  8
CONTOUR1-18
 62
     1
100
AcDbCircle
 10
505.0852294942972
 20
2674.268268828623
 30
0.0
 40
2.0
100
AcDbArc
 50
0.0
 51
90.0
  0
ARC
  5
2EE2
102
{ACAD_REACTORS
330
2ECC
102
}
330
17
100
AcDbEntity
  8
CONTOUR1-18
 62
     1
100
AcDbCircle
 10
505.0852294942972
 20
2674.268268828623
 30
0.0
 40
0.5
100
AcDbArc
 50
0.0
 51
90.0
  0
LWPOLYLINE
  5
2EE3
102
{ACAD_REACTORS
330
2ECC
102
}
330
17
100
AcDbEntity
  8
CONTOUR1-18
 62
     1
100
AcDbPolyline
 90
        2
 70
     0
 43
0.0
 10
507.0852294942972
 20
2674.268268828623
 10
507.0852294942972
 20
2598.268268828622
  0
LWPOLYLINE
  5
2EE4
102
{ACAD_REACTORS
330
2ECC
102
}
330
17
100
AcDbEntity
  8
CONTOUR1-18
 62
     1
100
AcDbPolyline
 90
        2
 70
     0
 43
0.0
 10
505.5852294942972
 20
2674.268268828623
 10
505.5852294942972
 20
2598.268268828622
  0
LINE
  5
2EE5
330
17
100
AcDbEntity
  8
CONTOUR1-18
 62
     1
100
AcDbLine
 10
448.3352294942971
 20
2605.768268828623
 30
0.0
 11
456.8352294942972
 21
2605.768268828623
 31
0.0
  0
LINE
  5
2EE6
330
17
100
AcDbEntity
  8
CONTOUR1-18
 62
     1
100
AcDbLine
 10
448.3352294942973
 20
2607.268268828622
 30
0.0
 11
456.8352294942972
 21
2607.268268828622
 31
0.0
  0
ARC
  5
2EE7
330
17
100
AcDbEntity
  8
CONTOUR1-18
 62
     1
100
AcDbCircle
 10
456.8352294942971
 20
2605.518268828622
 30
0.0
 40
1.75
100
AcDbArc
 50
0.0
 51
90.0
  0
ARC
  5
2EE8
330
17
100
AcDbEntity
  8
CONTOUR1-18
 62
     1
100
AcDbCircle
 10
456.8352294942971
 20
2605.518268828622
 30
0.0
 40
0.25
100
AcDbArc
 50
0.0
 51
90.0
  0
DIMENSION
  5
2EE9
330
17
100
AcDbEntity
  8
BEMATING
100
AcDbDimension
  2
*D35
 10
426.3849784452586
 20
2722.274815347845
 30
0.0
 11
426.2947998839743
 21
2637.022384272071
 31
0.0
 70
   160
  1
PB
 71
     5
 42
173.0065465192228
  3
STANDARD
100
AcDbAlignedDimension
 13
441.3849784452581
 23
2549.268268828623
 33
0.0
 14
441.3849784452585
 24
2722.274815347845
 34
0.0
 50
90.0
100
AcDbRotatedDimension
1001
ACAD
1000
DSTYLE
1002
{
1070
    41
1040
1.0
1070
    42
1040
7.0
1070
    43
1040
5.0
1070
    44
1040
2.0
1070
    73
1070
     0
1070
    74
1070
     0
1070
    78
1070
     8
1070
   140
1040
2.5
1070
   141
1040
3.0
1070
   143
1040
0.0394
1070
   146
1040
0.8571428571428571
1070
   147
1040
1.0
1070
   172
1070
     1
1070
   173
1070
     1
1070
   176
1070
     7
1070
   177
1070
     7
1070
   178
1070
     7
1070
   271
1070
     1
1070
   272
1070
     1
1070
   279
1070
     2
1070
   284
1070
     8
1070
   285
1070
     8
1070
   286
1070
     8
1070
   340
1005
541
1070
   342
1005
1C
1002
}
  0
ARC
  5
2EEA
330
17
100
AcDbEntity
  8
CONTOUR1-18
 62
     1
100
AcDbCircle
 10
448.3352294942973
 20
2606.518268828623
 30
0.0
 40
0.75
100
AcDbArc
 50
90.0
 51
270.0
  0
HATCH
  5
2EEB
330
17
100
AcDbEntity
  8
BEMATING
100
AcDbHatch
 10
0.0
 20
0.0
 30
0.0
210
0.0
220
0.0
230
1.0
  2
SOLID
 70
     1
 71
     1
 91
        2
 92
        7
 72
     1
 73
     1
 93
        8
 10
458.5852294942973
 20
2609.268268828623
 42
0.0
 10
452.6483332240431
 20
2609.268268828623
 42
0.0
 10
452.6483332240431
 20
2607.768268828623
 42
0.0
 10
458.5852294942973
 20
2607.768268828623
 42
-0.4142135623730951
 10
459.0852294942973
 20
2607.268268828622
 42
0.0
 10
459.0852294942973
 20
2599.018268828622
 42
1.0
 10
460.5852294942972
 20
2599.018268828622
 42
0.0
 10
460.5852294942972
 20
2607.268268828622
 42
0.4142135623730951
 97
        8
330
2EEC
330
2F0D
330
2EF1
330
2EF3
330
2EF6
330
2EF4
330
2EF5
330
2EF2
 92
        7
 72
     1
 73
     1
 93
        8
 10
496.5221257645514
 20
2609.268268828623
 42
0.0
 10
490.5852294942972
 20
2609.268268828623
 42
0.4142135623730951
 10
488.5852294942973
 20
2607.268268828622
 42
0.0
 10
488.5852294942973
 20
2599.018268828622
 42
1.0
 10
490.0852294942972
 20
2599.018268828622
 42
0.0
 10
490.0852294942972
 20
2607.268268828622
 42
-0.4142135623730951
 10
490.5852294942972
 20
2607.768268828623
 42
0.0
 10
496.5221257645514
 20
2607.768268828623
 42
0.0
 97
        8
330
2EFB
330
2F09
330
2F06
330
2F08
330
2F07
330
2F0A
330
2EFA
330
2F0E
 75
     0
 76
     1
 47
0.3940677334927234
 98
        2
 10
455.073966135226
 20
2608.649506879806
 10
492.1320701527698
 20
2608.649506879806
450
        0
451
        0
460
0.0
461
0.0
452
        1
462
1.0
453
        2
463
0.0
 63
     5
421
      255
463
1.0
 63
    51
421
 16777113
470
LINEAR
1001
ACAD
1010
0.0
1020
0.0
1030
0.0
  0
LINE
  5
2EEC
102
{ACAD_REACTORS
330
2ECC
330
2EEB
102
}
330
17
100
AcDbEntity
  8
CONTOUR1-18
100
AcDbLine
 10
446.7114369537889
 20
2609.268268828623
 30
0.0
 11
458.5852294942973
 21
2609.268268828623
 31
0.0
  0
LINE
  5
2EED
102
{ACAD_REACTORS
330
2ECC
102
}
330
17
100
AcDbEntity
  8
CONTOUR0-18
 62
     1
100
AcDbLine
 10
446.2159124626595
 20
2607.335018200837
 30
0.0
 11
447.014054892425
 21
2598.860558610241
 31
0.0
  0
LINE
  5
2EEE
102
{ACAD_REACTORS
330
2ECC
102
}
330
17
100
AcDbEntity
  8
CONTOUR0-18
 62
     1
100
AcDbLine
 10
444.711436953789
 20
2607.268268828622
 30
0.0
 11
445.5433981866899
 21
2598.55447287632
 31
0.0
  0
ARC
  5
2EEF
102
{ACAD_REACTORS
330
2ECC
102
}
330
17
100
AcDbEntity
  8
CONTOUR0-18
 62
     1
100
AcDbCircle
 10
444.5852294942972
 20
2598.268268828622
 30
0.0
 40
2.5
100
AcDbArc
 50
180.0
 51
13.70458622233195
  0
ARC
  5
2EF0
102
{ACAD_REACTORS
330
2ECC
102
}
330
17
100
AcDbEntity
  8
CONTOUR0-18
 62
     1
100
AcDbCircle
 10
444.5852294942972
 20
2598.268268828622
 30
0.0
 40
1.0
100
AcDbArc
 50
180.0
 51
16.63083374666997
  0
LINE
  5
2EF1
102
{ACAD_REACTORS
330
2ECC
330
2EEB
102
}
330
17
100
AcDbEntity
  8
CONTOUR1-18
100
AcDbLine
 10
446.7114369537889
 20
2607.768268828623
 30
0.0
 11
458.5852294942973
 21
2607.768268828623
 31
0.0
  0
ARC
  5
2EF2
102
{ACAD_REACTORS
330
2EEB
102
}
330
17
100
AcDbEntity
  8
CONTOUR1-18
 62
     1
100
AcDbCircle
 10
458.5852294942973
 20
2607.268268828622
 30
0.0
 40
2.0
100
AcDbArc
 50
0.0
 51
90.0
  0
ARC
  5
2EF3
102
{ACAD_REACTORS
330
2EEB
102
}
330
17
100
AcDbEntity
  8
CONTOUR1-18
 62
     1
100
AcDbCircle
 10
458.5852294942973
 20
2607.268268828622
 30
0.0
 40
0.5
100
AcDbArc
 50
0.0
 51
90.0
  0
ARC
  5
2EF4
102
{ACAD_REACTORS
330
2EEB
102
}
330
17
100
AcDbEntity
  8
CONTOUR1-18
 62
     1
100
AcDbCircle
 10
459.8352294942972
 20
2599.018268828622
 30
0.0
 40
0.75
100
AcDbArc
 50
180.0
 51
0.0
  0
LWPOLYLINE
  5
2EF5
102
{ACAD_REACTORS
330
2EEB
102
}
330
17
100
AcDbEntity
  8
CONTOUR1-18
 62
     1
100
AcDbPolyline
 90
        2
 70
     0
 43
0.0
 10
460.5852294942972
 20
2607.268268828622
 10
460.5852294942972
 20
2599.018268828622
  0
LWPOLYLINE
  5
2EF6
102
{ACAD_REACTORS
330
2EEB
102
}
330
17
100
AcDbEntity
  8
CONTOUR1-18
 62
     1
100
AcDbPolyline
 90
        2
 70
     0
 43
0.0
 10
459.0852294942973
 20
2607.268268828622
 10
459.0852294942973
 20
2599.018268828622
  0
ARC
  5
2EF7
102
{ACAD_REACTORS
330
2ECC
102
}
330
17
100
AcDbEntity
  8
CONTOUR1-18
 62
     1
100
AcDbCircle
 10
446.7114369537889
 20
2607.268268828622
 30
0.0
 40
0.5
100
AcDbArc
 50
90.0
 51
180.0
  0
ARC
  5
2EF8
102
{ACAD_REACTORS
330
2ECC
102
}
330
17
100
AcDbEntity
  8
CONTOUR1-18
 62
     1
100
AcDbCircle
 10
446.7114369537889
 20
2607.268268828622
 30
0.0
 40
2.0
100
AcDbArc
 50
90.0
 51
180.0
  0
ARC
  5
2EF9
330
17
100
AcDbEntity
  8
CONTOUR1-18
 62
     1
100
AcDbCircle
 10
492.3352294942974
 20
2605.518268828622
 30
0.0
 40
1.75
100
AcDbArc
 50
90.0
 51
180.0
  0
LINE
  5
2EFA
102
{ACAD_REACTORS
330
2ECC
330
2EEB
102
}
330
17
100
AcDbEntity
  8
CONTOUR1-18
100
AcDbLine
 10
502.4590220348056
 20
2607.768268828623
 30
0.0
 11
490.5852294942972
 21
2607.768268828623
 31
0.0
  0
LINE
  5
2EFB
102
{ACAD_REACTORS
330
2ECC
330
2EEB
102
}
330
17
100
AcDbEntity
  8
CONTOUR1-18
100
AcDbLine
 10
502.4590220348056
 20
2609.268268828623
 30
0.0
 11
490.5852294942972
 21
2609.268268828623
 31
0.0
  0
LINE
  5
2EFC
102
{ACAD_REACTORS
330
2ECC
102
}
330
17
100
AcDbEntity
  8
CONTOUR0-18
 62
     1
100
AcDbLine
 10
502.9545465259348
 20
2607.335018200837
 30
0.0
 11
502.1564040961695
 21
2598.860558610241
 31
0.0
  0
LINE
  5
2EFD
102
{ACAD_REACTORS
330
2ECC
102
}
330
17
100
AcDbEntity
  8
CONTOUR0-18
 62
     1
100
AcDbLine
 10
504.4590220348055
 20
2607.268268828622
 30
0.0
 11
503.6270608019044
 21
2598.55447287632
 31
0.0
  0
ARC
  5
2EFE
102
{ACAD_REACTORS
330
2ECC
102
}
330
17
100
AcDbEntity
  8
CONTOUR0-18
 62
     1
100
AcDbCircle
 10
504.5852294942973
 20
2598.268268828622
 30
0.0
 40
2.5
100
AcDbArc
 50
166.295413777668
 51
0.0
  0
ARC
  5
2EFF
102
{ACAD_REACTORS
330
2ECC
102
}
330
17
100
AcDbEntity
  8
CONTOUR0-18
 62
     1
100
AcDbCircle
 10
504.5852294942973
 20
2598.268268828622
 30
0.0
 40
1.0
100
AcDbArc
 50
163.36916625333
 51
0.0
  0
LINE
  5
2F00
330
17
100
AcDbEntity
  8
CONTOUR1-18
 62
     1
100
AcDbLine
 10
500.8352294942973
 20
2605.768268828623
 30
0.0
 11
492.3352294942973
 21
2605.768268828623
 31
0.0
  0
LINE
  5
2F01
330
17
100
AcDbEntity
  8
CONTOUR1-18
 62
     1
100
AcDbLine
 10
500.8352294942972
 20
2607.268268828622
 30
0.0
 11
492.3352294942973
 21
2607.268268828622
 31
0.0
  0
ARC
  5
2F02
102
{ACAD_REACTORS
330
2ECC
102
}
330
17
100
AcDbEntity
  8
CONTOUR1-18
 62
     1
100
AcDbCircle
 10
502.4590220348056
 20
2607.268268828622
 30
0.0
 40
2.0
100
AcDbArc
 50
0.0
 51
90.0
  0
ARC
  5
2F03
330
17
100
AcDbEntity
  8
CONTOUR1-18
 62
     1
100
AcDbCircle
 10
500.8352294942972
 20
2606.518268828623
 30
0.0
 40
0.75
100
AcDbArc
 50
270.0
 51
90.0
  0
ARC
  5
2F04
102
{ACAD_REACTORS
330
2ECC
102
}
330
17
100
AcDbEntity
  8
CONTOUR1-18
 62
     1
100
AcDbCircle
 10
502.4590220348056
 20
2607.268268828622
 30
0.0
 40
0.5
100
AcDbArc
 50
0.0
 51
90.0
  0
ARC
  5
2F05
330
17
100
AcDbEntity
  8
CONTOUR1-18
 62
     1
100
AcDbCircle
 10
492.3352294942974
 20
2605.518268828622
 30
0.0
 40
0.25
100
AcDbArc
 50
90.0
 51
180.0
  0
LWPOLYLINE
  5
2F06
102
{ACAD_REACTORS
330
2EEB
102
}
330
17
100
AcDbEntity
  8
CONTOUR1-18
 62
     1
100
AcDbPolyline
 90
        2
 70
     0
 43
0.0
 10
488.5852294942973
 20
2607.268268828622
 10
488.5852294942973
 20
2599.018268828622
  0
LWPOLYLINE
  5
2F07
102
{ACAD_REACTORS
330
2EEB
102
}
330
17
100
AcDbEntity
  8
CONTOUR1-18
 62
     1
100
AcDbPolyline
 90
        2
 70
     0
 43
0.0
 10
490.0852294942972
 20
2607.268268828622
 10
490.0852294942972
 20
2599.018268828622
  0
ARC
  5
2F08
102
{ACAD_REACTORS
330
2EEB
102
}
330
17
100
AcDbEntity
  8
CONTOUR1-18
 62
     1
100
AcDbCircle
 10
489.3352294942972
 20
2599.018268828622
 30
0.0
 40
0.75
100
AcDbArc
 50
180.0
 51
0.0
  0
ARC
  5
2F09
102
{ACAD_REACTORS
330
2EEB
102
}
330
17
100
AcDbEntity
  8
CONTOUR1-18
 62
     1
100
AcDbCircle
 10
490.5852294942972
 20
2607.268268828622
 30
0.0
 40
2.0
100
AcDbArc
 50
89.99999999999674
 51
180.0
  0
ARC
  5
2F0A
102
{ACAD_REACTORS
330
2EEB
102
}
330
17
100
AcDbEntity
  8
CONTOUR1-18
 62
     1
100
AcDbCircle
 10
490.5852294942972
 20
2607.268268828622
 30
0.0
 40
0.5
100
AcDbArc
 50
89.99999999999674
 51
180.0
  0
LINE
  5
2F0B
330
17
100
AcDbEntity
  8
CONTOUR1-18
  6
CENTER
100
AcDbLine
 10
452.648333224043
 20
2602.405800546043
 30
0.0
 11
452.648333224043
 21
2605.768268828623
 31
0.0
  0
LINE
  5
2F0C
330
17
100
AcDbEntity
  8
CONTOUR1-18
  6
CENTER
100
AcDbLine
 10
496.5221257645514
 20
2602.405800546043
 30
0.0
 11
496.5221257645514
 21
2605.768268828623
 31
0.0
  0
LINE
  5
2F0D
102
{ACAD_REACTORS
330
2ECC
330
2EEB
102
}
330
17
100
AcDbEntity
  8
CONTOUR1-18
  6
CENTER
100
AcDbLine
 10
452.6483332240431
 20
2607.268268828622
 30
0.0
 11
452.648333224043
 21
2617.770483272512
 31
0.0
  0
LINE
  5
2F0E
102
{ACAD_REACTORS
330
2ECC
330
2EEB
102
}
330
17
100
AcDbEntity
  8
CONTOUR1-18
  6
CENTER
100
AcDbLine
 10
496.5221257645514
 20
2607.268268828622
 30
0.0
 11
496.5221257645514
 21
2617.770483272512
 31
0.0
  0
HATCH
  5
2F0F
330
17
100
AcDbEntity
  8
TEXT
100
AcDbHatch
 10
0.0
 20
0.0
 30
0.0
210
0.0
220
0.0
230
1.0
  2
SOLID
 70
     1
 71
     0
 91
        1
 92
        7
 72
     1
 73
     1
 93
       20
 10
492.0852294942972
 20
2551.518268828623
 42
0.0
 10
492.0852294942973
 20
2605.518268828622
 42
-0.4142135623731919
 10
492.3352294942973
 20
2605.768268828623
 42
0.0
 10
500.8352294942973
 20
2605.768268828623
 42
1.0
 10
500.8352294942973
 20
2607.268268828622
 42
0.0
 10
492.3352294942973
 20
2607.268268828622
 42
0.4142135623730931
 10
490.5852294942973
 20
2605.518268828622
 42
0.0
 10
490.5852294942972
 20
2551.518268828623
 42
-0.4142135623730964
 10
490.3352294942972
 20
2551.268268828622
 42
0.0
 10
458.8352294942973
 20
2551.268268828622
 42
-0.4142135623732256
 10
458.5852294942973
 20
2551.518268828623
 42
0.0
 10
458.5852294942973
 20
2605.518268828622
 42
0.4142135623731051
 10
456.8352294942972
 20
2607.268268828622
 42
0.0
 10
448.3352294942973
 20
2607.268268828622
 42
1.0
 10
448.3352294942973
 20
2605.768268828623
 42
0.0
 10
456.8352294942972
 20
2605.768268828623
 42
-0.4142135623731587
 10
457.0852294942972
 20
2605.518268828622
 42
0.0
 10
457.0852294942971
 20
2551.518268828623
 42
0.4142135623730924
 10
458.8352294942971
 20
2549.768268828622
 42
0.0
 10
490.3352294942972
 20
2549.768268828622
 42
0.4142135623730988
 97
        0
 75
     0
 76
     1
 47
0.2623384396919743
 98
        1
 10
471.7154668864801
 20
2550.551270435717
450
        0
451
        0
460
0.0
461
0.0
452
        1
462
1.0
453
        2
463
0.0
 63
     5
421
      255
463
1.0
 63
    51
421
 16777113
470
LINEAR
  0
HATCH
  5
2F10
330
17
100
AcDbEntity
  8
BEMATING
100
AcDbHatch
 10
0.0
 20
0.0
 30
0.0
210
0.0
220
0.0
230
1.0
  2
SOLID
 70
     1
 71
     1
 91
        1
 92
        7
 72
     1
 73
     1
 93
       12
 10
489.5852294942973
 20
2720.768268828622
 42
-0.4142135623730948
 10
490.5852294942973
 20
2719.768268828622
 42
0.0
 10
490.5852294942973
 20
2676.768268828622
 42
0.0
 10
492.0852294942973
 20
2676.768268828622
 42
0.0
 10
492.0852294942973
 20
2719.768268828622
 42
0.4142135623730984
 10
489.5852294942973
 20
2722.268268828623
 42
0.0
 10
459.5852294942972
 20
2722.268268828623
 42
0.4142135623730984
 10
457.0852294942973
 20
2719.768268828622
 42
0.0
 10
457.0852294942973
 20
2676.768268828622
 42
0.0
 10
458.5852294942973
 20
2676.768268828622
 42
0.0
 10
458.5852294942973
 20
2719.768268828622
 42
-0.4142135623730951
 10
459.5852294942972
 20
2720.768268828622
 42
0.0
 97
       12
330
2F15
330
2F12
330
2F11
330
2F1B
330
2F13
330
2F14
330
2F16
330
2F1A
330
2F19
330
2F1C
330
2F17
330
2F18
 75
     0
 76
     1
 47
0.3499697097855192
 98
        1
 10
471.8723861209402
 20
2721.327569498707
450
        0
451
        0
460
0.0
461
0.0
452
        1
462
1.0
453
        2
463
0.0
 63
     5
421
      255
463
1.0
 63
    51
421
 16777113
470
LINEAR
1001
ACAD
1010
0.0
1020
0.0
1030
0.0
  0
LINE
  5
2F11
102
{ACAD_REACTORS
330
2F10
102
}
330
17
100
AcDbEntity
  8
CONTOUR0-18
100
AcDbLine
 10
457.0852294942973
 20
2676.768268828622
 30
0.0
 11
457.0852294942973
 21
2719.768268828622
 31
0.0
  0
ARC
  5
2F12
102
{ACAD_REACTORS
330
2F10
102
}
330
17
100
AcDbEntity
  8
CONTOUR0-18
100
AcDbCircle
 10
459.5852294942972
 20
2719.768268828622
 30
0.0
 40
2.5
100
AcDbArc
 50
90.0
 51
180.0
  0
LINE
  5
2F13
102
{ACAD_REACTORS
330
2F10
102
}
330
17
100
AcDbEntity
  8
CONTOUR0-18
100
AcDbLine
 10
458.5852294942973
 20
2676.768268828622
 30
0.0
 11
458.5852294942973
 21
2719.768268828622
 31
0.0
  0
ARC
  5
2F14
102
{ACAD_REACTORS
330
2F10
102
}
330
17
100
AcDbEntity
  8
CONTOUR0-18
100
AcDbCircle
 10
459.5852294942972
 20
2719.768268828622
 30
0.0
 40
1.0
100
AcDbArc
 50
90.0
 51
180.0
  0
LINE
  5
2F15
102
{ACAD_REACTORS
330
2F10
102
}
330
17
100
AcDbEntity
  8
CONTOUR0-18
100
AcDbLine
 10
459.5852294942972
 20
2722.268268828623
 30
0.0
 11
489.5852294942973
 21
2722.268268828623
 31
0.0
  0
LINE
  5
2F16
102
{ACAD_REACTORS
330
2F10
102
}
330
17
100
AcDbEntity
  8
CONTOUR0-18
100
AcDbLine
 10
459.5852294942972
 20
2720.768268828622
 30
0.0
 11
489.5852294942973
 21
2720.768268828622
 31
0.0
  0
LINE
  5
2F17
102
{ACAD_REACTORS
330
2F10
102
}
330
17
100
AcDbEntity
  8
CONTOUR0-18
100
AcDbLine
 10
492.0852294942973
 20
2719.768268828622
 30
0.0
 11
492.0852294942973
 21
2676.768268828622
 31
0.0
  0
ARC
  5
2F18
102
{ACAD_REACTORS
330
2F10
102
}
330
17
100
AcDbEntity
  8
CONTOUR0-18
100
AcDbCircle
 10
489.5852294942973
 20
2719.768268828622
 30
0.0
 40
2.5
100
AcDbArc
 50
0.0
 51
90.0
  0
LINE
  5
2F19
102
{ACAD_REACTORS
330
2F10
102
}
330
17
100
AcDbEntity
  8
CONTOUR0-18
100
AcDbLine
 10
490.5852294942973
 20
2719.768268828622
 30
0.0
 11
490.5852294942973
 21
2676.768268828622
 31
0.0
  0
ARC
  5
2F1A
102
{ACAD_REACTORS
330
2F10
102
}
330
17
100
AcDbEntity
  8
CONTOUR0-18
100
AcDbCircle
 10
489.5852294942973
 20
2719.768268828622
 30
0.0
 40
1.0
100
AcDbArc
 50
0.0
 51
90.0
  0
LINE
  5
2F1B
102
{ACAD_REACTORS
330
2F10
102
}
330
17
100
AcDbEntity
  8
CONTOUR0-18
100
AcDbLine
 10
457.0852294942973
 20
2676.768268828622
 30
0.0
 11
458.5852294942973
 21
2676.768268828622
 31
0.0
  0
LINE
  5
2F1C
102
{ACAD_REACTORS
330
2F10
102
}
330
17
100
AcDbEntity
  8
CONTOUR0-18
100
AcDbLine
 10
490.5852294942973
 20
2676.768268828622
 30
0.0
 11
492.0852294942973
 21
2676.768268828622
 31
0.0
  0
DIMENSION
  5
2F1D
330
17
100
AcDbEntity
  8
BEMATING
100
AcDbDimension
  2
*D36
 10
507.0852294942972
 20
2738.148229015069
 30
0.0
 11
474.585229494297
 21
2738.148229015069
 31
0.0
 70
    32
 71
     5
 42
65.00000000000028
  3
STANDARD
100
AcDbAlignedDimension
 13
442.0852294942969
 23
2723.148229015069
 33
0.0
 14
507.0852294942972
 24
2723.148229015069
 34
0.0
100
AcDbRotatedDimension
1001
ACAD
1000
DSTYLE
1002
{
1070
    41
1040
1.0
1070
    42
1040
7.0
1070
    43
1040
5.0
1070
    44
1040
2.0
1070
    73
1070
     0
1070
    74
1070
     0
1070
    78
1070
     8
1070
   140
1040
2.5
1070
   141
1040
3.0
1070
   143
1040
0.0394
1070
   146
1040
0.8571428571428571
1070
   147
1040
1.0
1070
   172
1070
     1
1070
   173
1070
     1
1070
   176
1070
     7
1070
   177
1070
     7
1070
   178
1070
     7
1070
   271
1070
     1
1070
   272
1070
     1
1070
   279
1070
     2
1070
   284
1070
     8
1070
   285
1070
     8
1070
   286
1070
     8
1070
   340
1005
541
1070
   342
1005
1C
1002
}
  0
DIMENSION
  5
2F1E
330
17
100
AcDbEntity
  8
BEMATING
100
AcDbDimension
  2
*D37
 10
492.0852294942971
 20
2733.148229015069
 30
0.0
 11
474.5852294942971
 21
2733.148229015069
 31
0.0
 70
    32
 71
     5
 42
35.0
  3
STANDARD
100
AcDbAlignedDimension
 13
457.0852294942971
 23
2723.148229015069
 33
0.0
 14
492.0852294942971
 24
2723.148229015069
 34
0.0
100
AcDbRotatedDimension
1001
ACAD
1000
DSTYLE
1002
{
1070
    41
1040
1.0
1070
    42
1040
7.0
1070
    43
1040
5.0
1070
    44
1040
2.0
1070
    73
1070
     0
1070
    74
1070
     0
1070
    78
1070
     8
1070
   140
1040
2.5
1070
   141
1040
3.0
1070
   143
1040
0.0394
1070
   146
1040
0.8571428571428571
1070
   147
1040
1.0
1070
   172
1070
     1
1070
   173
1070
     1
1070
   176
1070
     7
1070
   177
1070
     7
1070
   178
1070
     7
1070
   271
1070
     1
1070
   272
1070
     1
1070
   279
1070
     2
1070
   284
1070
     8
1070
   285
1070
     8
1070
   286
1070
     8
1070
   340
1005
541
1070
   342
1005
1C
1002
}
  0
DIMENSION
  5
2F1F
330
17
100
AcDbEntity
  8
BEMATING
100
AcDbDimension
  2
*D38
 10
457.0852294942971
 20
2733.148229015069
 30
0.0
 11
449.585229494297
 21
2733.148229015069
 31
0.0
 70
    32
 71
     5
 42
15.00000000000023
  3
STANDARD
100
AcDbAlignedDimension
 13
442.0852294942969
 23
2723.148229015069
 33
0.0
 14
457.0852294942971
 24
2723.148229015069
 34
0.0
100
AcDbRotatedDimension
1001
ACAD
1000
DSTYLE
1002
{
1070
    41
1040
1.0
1070
    42
1040
7.0
1070
    43
1040
5.0
1070
    44
1040
2.0
1070
    73
1070
     0
1070
    74
1070
     0
1070
    78
1070
     8
1070
   140
1040
2.5
1070
   141
1040
3.0
1070
   143
1040
0.0394
1070
   146
1040
0.8571428571428571
1070
   147
1040
1.0
1070
   172
1070
     1
1070
   173
1070
     1
1070
   176
1070
     7
1070
   177
1070
     7
1070
   178
1070
     7
1070
   271
1070
     1
1070
   272
1070
     1
1070
   279
1070
     2
1070
   284
1070
     8
1070
   285
1070
     8
1070
   286
1070
     8
1070
   340
1005
541
1070
   342
1005
1C
1002
}
  0
DIMENSION
  5
2F20
330
17
100
AcDbEntity
  8
BEMATING
100
AcDbDimension
  2
*D39
 10
507.0852294942972
 20
2733.148229015069
 30
0.0
 11
499.5852294942972
 21
2733.148229015069
 31
0.0
 70
    32
 71
     5
 42
15.00000000000006
  3
STANDARD
100
AcDbAlignedDimension
 13
492.0852294942971
 23
2723.148229015069
 33
0.0
 14
507.0852294942972
 24
2723.148229015069
 34
0.0
100
AcDbRotatedDimension
1001
ACAD
1000
DSTYLE
1002
{
1070
    41
1040
1.0
1070
    42
1040
7.0
1070
    43
1040
5.0
1070
    44
1040
2.0
1070
    73
1070
     0
1070
    74
1070
     0
1070
    78
1070
     8
1070
   140
1040
2.5
1070
   141
1040
3.0
1070
   143
1040
0.0394
1070
   146
1040
0.8571428571428571
1070
   147
1040
1.0
1070
   172
1070
     1
1070
   173
1070
     1
1070
   176
1070
     7
1070
   177
1070
     7
1070
   178
1070
     7
1070
   271
1070
     1
1070
   272
1070
     1
1070
   279
1070
     2
1070
   284
1070
     8
1070
   285
1070
     8
1070
   286
1070
     8
1070
   340
1005
541
1070
   342
1005
1C
1002
}
  0
DIMENSION
  5
2F21
330
17
100
AcDbEntity
  8
BEMATING
100
AcDbDimension
  2
*D40
 10
431.3849784452587
 20
2676.268268828622
 30
0.0
 11
431.3849784452584
 21
2699.271542088234
 31
0.0
 70
    32
 71
     5
 42
46.00654651922286
  3
STANDARD
100
AcDbAlignedDimension
 13
441.3849784452587
 23
2722.274815347845
 33
0.0
 14
441.3849784452584
 24
2676.268268828622
 34
0.0
 50
90.0
100
AcDbRotatedDimension
1001
ACAD
1000
DSTYLE
1002
{
1070
    41
1040
1.0
1070
    42
1040
7.0
1070
    43
1040
5.0
1070
    44
1040
2.0
1070
    73
1070
     0
1070
    74
1070
     0
1070
    78
1070
     8
1070
   140
1040
2.5
1070
   141
1040
3.0
1070
   143
1040
0.0394
1070
   146
1040
0.8571428571428571
1070
   147
1040
1.0
1070
   172
1070
     1
1070
   173
1070
     1
1070
   176
1070
     7
1070
   177
1070
     7
1070
   178
1070
     7
1070
   271
1070
     1
1070
   272
1070
     1
1070
   279
1070
     2
1070
   284
1070
     8
1070
   285
1070
     8
1070
   286
1070
     8
1070
   340
1005
541
1070
   342
1005
1C
1002
}
  0
INSERT
  5
2F22
330
17
100
AcDbEntity
  8
TEXT
100
AcDbBlockReference
  2
Band-Nr6150
 10
504.5134601782928
 20
2595.479520608579
 30
0.0
  0
INSERT
  5
2F23
330
17
100
AcDbEntity
  8
TEXT
100
AcDbBlockReference
  2
Band-Nr6150
 10
444.9443119873015
 20
2595.479520608579
 30
0.0
 41
-1.0
  0
ENDSEC
  0
SECTION
  2
OBJECTS
  0
DICTIONARY
  5
C
330
0
100
AcDbDictionary
281
     1
  3
ACAD_CIP_PREVIOUS_PRODUCT_INFO
350
2D3D
  3
ACAD_COLOR
350
156A
  3
ACAD_DETAILVIEWSTYLE
350
2D30
  3
ACAD_GROUP
350
D
  3
ACAD_LAYOUT
350
765
  3
ACAD_MATERIAL
350
1569
  3
ACAD_MLEADERSTYLE
350
2D2B
  3
ACAD_MLINESTYLE
350
1A
  3
ACAD_PLOTSETTINGS
350
766
  3
ACAD_PLOTSTYLENAME
350
763
  3
ACAD_SCALELIST
350
2D19
  3
ACAD_SECTIONVIEWSTYLE
350
2D2D
  3
ACAD_TABLESTYLE
350
1578
  3
ACAD_VISUALSTYLE
350
2D00
  3
ACDB_RECOMPOSE_DATA
350
304C
  3
ACDBVARIABLEDICTIONARY
350
38
  3
AcDsDecomposeData
350
3052
  0
DICTIONARY
  5
3055
330
8
100
AcDbDictionary
280
     1
281
     1
  3
ACAD_XREC_ROUNDTRIP
360
3056
  0
DICTIONARY
  5
15E7
330
2
100
AcDbDictionary
280
     1
281
     1
  3
ACAD_LAYERFILTERS
360
29AC
  3
ACAD_LAYERSTATES
360
15E8
  3
ACLYDICTIONARY
360
29AB
  0
DICTIONARY
  5
3029
330
E
100
AcDbDictionary
280
     1
281
     1
  3
ADSK_XREC_LAYER_RECONCILED
360
302A
  0
DICTIONARY
  5
302B
330
2D
100
AcDbDictionary
280
     1
281
     1
  3
ADSK_XREC_LAYER_RECONCILED
360
302C
  0
DICTIONARY
  5
302D
330
2E
100
AcDbDictionary
280
     1
281
     1
  3
ADSK_XREC_LAYER_RECONCILED
360
302E
  0
DICTIONARY
  5
3033
330
2903
100
AcDbDictionary
280
     1
281
     1
  3
ADSK_XREC_LAYER_RECONCILED
360
3034
  0
DICTIONARY
  5
3045
330
2E65
100
AcDbDictionary
280
     1
281
     1
  3
ADSK_XREC_LAYER_RECONCILED
360
3046
  0
DICTIONARY
  5
3047
330
2E66
100
AcDbDictionary
280
     1
281
     1
  3
ADSK_XREC_LAYER_RECONCILED
360
3048
  0
DICTIONARY
  5
15BA
330
17
100
AcDbDictionary
280
     1
281
     1
  3
ACAD_SORTENTS
360
15BB
  0
XRECORD
  5
2D3D
102
{ACAD_REACTORS
330
C
102
}
330
C
100
AcDbXrecord
280
     1
300
ACD
300
2013
300
ACD_F_S
  0
DICTIONARY
  5
156A
102
{ACAD_REACTORS
330
C
102
}
330
C
100
AcDbDictionary
281
     1
  0
DICTIONARY
  5
2D30
102
{ACAD_REACTORS
330
C
102
}
330
C
100
AcDbDictionary
281
     1
  3
Imperial24
350
2D31
  0
DICTIONARY
  5
D
102
{ACAD_REACTORS
330
C
102
}
330
C
100
AcDbDictionary
281
     1
  0
DICTIONARY
  5
765
102
{ACAD_REACTORS
330
C
102
}
330
C
100
AcDbDictionary
281
     1
  3
Layout1
350
30A3
  3
Model
350
767
  0
DICTIONARY
  5
1569
102
{ACAD_REACTORS
330
C
102
}
330
C
100
AcDbDictionary
281
     1
  3
ByBlock
350
2CF0
  3
ByLayer
350
2CE8
  3
Global
350
2CF8
  0
DICTIONARY
  5
2D2B
102
{ACAD_REACTORS
330
C
102
}
330
C
100
AcDbDictionary
281
     1
  3
Standard
350
2D2C
  0
DICTIONARY
  5
1A
102
{ACAD_REACTORS
330
C
102
}
330
C
100
AcDbDictionary
281
     1
  3
STANDARD
350
1B
  0
DICTIONARY
  5
766
102
{ACAD_REACTORS
330
C
102
}
330
C
100
AcDbDictionary
281
     1
  3
nashauACADA4
350
1526
  0
ACDBDICTIONARYWDFLT
  5
763
102
{ACAD_REACTORS
330
C
102
}
330
C
100
AcDbDictionary
281
     1
  3
Normal
350
764
100
AcDbDictionaryWithDefault
340
764
  0
DICTIONARY
  5
2D19
102
{ACAD_REACTORS
330
C
102
}
330
C
100
AcDbDictionary
281
     1
  3
A0
350
2D1A
  3
A1
350
2D1B
  3
A2
350
2D1C
  3
A3
350
2D1D
  3
A4
350
2D1E
  3
A5
350
2D1F
  3
A6
350
2D20
  3
A7
350
2D21
  3
A8
350
2D22
  3
A9
350
2D23
  3
B0
350
2D24
  3
B1
350
2D25
  3
B2
350
2D26
  3
B3
350
2D27
  3
B4
350
2D28
  3
B5
350
2D29
  3
B6
350
2D2A
  0
DICTIONARY
  5
2D2D
102
{ACAD_REACTORS
330
C
102
}
330
C
100
AcDbDictionary
281
     1
  3
Imperial24
350
2D2F
  0
DICTIONARY
  5
1578
102
{ACAD_REACTORS
330
C
102
}
330
C
100
AcDbDictionary
281
     1
  3
Standard
350
1579
  0
DICTIONARY
  5
2D00
102
{ACAD_REACTORS
330
C
102
}
330
C
100
AcDbDictionary
281
     1
  3
2dWireframe
350
2D06
  3
Basic
350
2D05
  3
Brighten
350
2D0C
  3
ColorChange
350
2D10
  3
Conceptual
350
2D09
  3
Dim
350
2D0B
  3
EdgeColorOff
350
2D18
  3
Facepattern
350
2D0F
  3
Flat
350
2D01
  3
FlatWithEdges
350
2D02
  3
Gouraud
350
2D03
  3
GouraudWithEdges
350
2D04
  3
Hidden
350
2D08
  3
JitterOff
350
2D16
  3
Linepattern
350
2D0E
  3
OverhangOff
350
2D17
  3
Realistic
350
2D0A
  3
Shaded
350
2D15
  3
Shaded with edges
350
2D14
  3
Shades of Gray
350
2D11
  3
Sketchy
350
2D12
  3
Thicken
350
2D0D
  3
Wireframe
350
2D07
  3
X-Ray
350
2D13
  0
XRECORD
  5
304C
102
{ACAD_REACTORS
330
C
102
}
330
C
100
AcDbXrecord
280
     1
 90
        1
330
1579
330
2EC9
330
2ECF
330
2ED4
330
2ED5
330
2EDE
330
2EE9
330
2F1D
330
2F1E
330
2F1F
330
2F20
330
2F21
  0
DICTIONARY
  5
38
102
{ACAD_REACTORS
330
C
102
}
330
C
100
AcDbDictionary
281
     1
  3
CANNOSCALE
350
2DC0
  3
CMLEADERSTYLE
350
2DBC
  3
CTABLESTYLE
350
158E
  3
CVIEWDETAILSTYLE
350
2DBD
  3
CVIEWSECTIONSTYLE
350
2DBE
  3
DIMADEC
350
39
  3
DIMASSOC
350
154D
  3
LAYEREVAL
350
2DC2
  3
LAYERNOTIFY
350
2DC3
  3
LIGHTINGUNITS
350
2DC1
  3
MSLTSCALE
350
2DBF
  3
SORTENTS
350
623
  0
DICTIONARY
  5
3052
102
{ACAD_REACTORS
330
C
102
}
330
C
100
AcDbDictionary
281
     1
  3
AcDsRecords
350
3054
  3
AcDsSchemas
350
3053
1001
ACAD
1070
     2
  0
XRECORD
  5
3056
102
{ACAD_REACTORS
330
3055
102
}
330
3055
100
AcDbXrecord
280
     1
102
VTR_0.000_0.000_1.000_1.000_VISUALSTYLE
340
2D06
102
VTR_0.000_0.000_1.000_1.000_GRIDDISPLAY
 70
     3
102
VTR_0.000_0.000_1.000_1.000_GRIDMAJOR
 70
     5
102
VTR_0.000_0.000_1.000_1.000_DEFAULTLIGHTING
280
     1
102
VTR_0.000_0.000_1.000_1.000_DEFAULTLIGHTINGTYPE
 70
     1
102
VTR_0.000_0.000_1.000_1.000_BRIGHTNESS
141
0.0
102
VTR_0.000_0.000_1.000_1.000_CONTRAST
142
0.0
  0
DICTIONARY
  5
29AC
102
{ACAD_REACTORS
330
15E7
102
}
330
15E7
100
AcDbDictionary
281
     1
  0
DICTIONARY
  5
15E8
102
{ACAD_REACTORS
330
15E7
102
}
330
15E7
100
AcDbDictionary
281
     1
  0
DICTIONARY
  5
29AB
102
{ACAD_REACTORS
330
15E7
102
}
330
15E7
100
AcDbDictionary
281
     1
1001
ACAD
1000
<All
  0
XRECORD
  5
302A
102
{ACAD_REACTORS
330
3029
102
}
330
3029
100
AcDbXrecord
280
     1
290
     1
  0
XRECORD
  5
302C
102
{ACAD_REACTORS
330
302B
102
}
330
302B
100
AcDbXrecord
280
     1
290
     1
  0
XRECORD
  5
302E
102
{ACAD_REACTORS
330
302D
102
}
330
302D
100
AcDbXrecord
280
     1
290
     1
  0
XRECORD
  5
3034
102
{ACAD_REACTORS
330
3033
102
}
330
3033
100
AcDbXrecord
280
     1
290
     1
  0
XRECORD
  5
3046
102
{ACAD_REACTORS
330
3045
102
}
330
3045
100
AcDbXrecord
280
     1
290
     1
  0
XRECORD
  5
3048
102
{ACAD_REACTORS
330
3047
102
}
330
3047
100
AcDbXrecord
280
     1
290
     1
  0
SORTENTSTABLE
  5
15BB
102
{ACAD_REACTORS
330
15BA
102
}
330
15BA
100
AcDbSortentsTable
330
17
331
15B1
  5
15C9
  0
ACAD_PROXY_OBJECT
  5
2D31
102
{ACAD_REACTORS
330
2D30
102
}
330
2D30
100
AcDbProxyObject
 90
      499
 91
      514
 95
  6815769
 70
     0
 93
     1513
310
90B496D70657269616C323400481C00000060001703D0BD6A3719C7F015AF46E07A15AE7E07000000180005C0F42F5A8DC671FA3300000018001000000180005C0F42F5A8DC671FA02000000000000741FA02AD929E2E20B1AB30B9102B34B2BBAA3CB832902E33101112BA3198911F1290129E2E20B1AB30B9102B34B2BBA
310
232BA30B4B624B21F12AE2829A1A0A62290129E2E20B1AB30B9102B34B2BBA9B1B0B632902E33101112B9B7111F1280233000000180008CC00000060000000
340
F
340
0
340
13
340
F
340
13
340
13
 94
        0
  0
LAYOUT
  5
30A3
102
{ACAD_REACTORS
330
765
102
}
330
765
100
AcDbPlotSettings
  1

  2
eDocPrinter PDF Pro
  4

  6

 40
0.0
 41
0.0
 42
0.0
 43
0.0
 44
0.0
 45
0.0
 46
0.0
 47
0.0
 48
0.0
 49
0.0
140
0.0
141
0.0
142
1.0
143
1.0
 70
   688
 72
     0
 73
     0
 74
     5
  7

 75
    16
147
1.0
 76
     0
 77
     2
 78
   300
148
0.0
149
0.0
100
AcDbLayout
  1
Layout1
 70
     1
 71
     1
 10
0.0
 20
0.0
 11
12.0
 21
9.0
 12
0.0
 22
0.0
 32
0.0
 14
0.0
 24
0.0
 34
0.0
 15
0.0
 25
0.0
 35
0.0
146
0.0
 13
0.0
 23
0.0
 33
0.0
 16
1.0
 26
0.0
 36
0.0
 17
0.0
 27
1.0
 37
0.0
 76
     0
330
30A2
  0
LAYOUT
  5
767
102
{ACAD_REACTORS
330
765
102
}
330
765
100
AcDbPlotSettings
  1

  2
EigenPrinter.pc3
  4
A4
  6

 40
5.027083396911621
 41
5.027085304260253
 42
5.027084350585937
 43
5.027069091796875
 44
209.9733276367187
 45
296.9259948730469
 46
10.0
 47
2.0
 48
17.5
 49
5.0
140
202.5
141
289.96
142
1.0
143
1.0
 70
 11952
 72
     1
 73
     0
 74
     4
  7
plotpen.ctb
 75
    16
147
1.0
 76
     0
 77
     2
 78
   300
148
-17.5
149
-5.0
100
AcDbLayout
  1
Model
 70
     1
 71
     0
 10
0.0
 20
0.0
 11
12.0
 21
9.0
 12
0.0
 22
0.0
 32
0.0
 14
0.0
 24
0.0
 34
0.0
 15
0.0
 25
0.0
 35
0.0
146
0.0
 13
0.0
 23
0.0
 33
0.0
 16
1.0
 26
0.0
 36
0.0
 17
0.0
 27
1.0
 37
0.0
 76
     0
330
17
  0
MATERIAL
  5
2CF0
102
{ACAD_XDICTIONARY
360
2CF1
102
}
102
{ACAD_REACTORS
330
1569
102
}
330
1569
100
AcDbMaterial
  1
ByBlock
 72
     0
 73
     2
 43
0.0208333333333333
 43
0.0
 43
0.0
 43
0.0
 43
0.0
 43
0.0208333333333333
 43
0.0
 43
0.0
 43
0.0
 43
0.0
 43
1.0
 43
0.0
 43
0.0
 43
0.0
 43
0.0
 43
1.0
 77
     0
 78
     2
 47
0.0208333333333333
 47
0.0
 47
0.0
 47
0.0
 47
0.0
 47
0.0208333333333333
 47
0.0
 47
0.0
 47
0.0
 47
0.0
 47
1.0
 47
0.0
 47
0.0
 47
0.0
 47
0.0
 47
1.0
171
     0
172
     2
 49
0.0208333333333333
 49
0.0
 49
0.0
 49
0.0
 49
0.0
 49
0.0208333333333333
 49
0.0
 49
0.0
 49
0.0
 49
0.0
 49
1.0
 49
0.0
 49
0.0
 49
0.0
 49
0.0
 49
1.0
175
     0
176
     2
142
0.0208333333333333
142
0.0
142
0.0
142
0.0
142
0.0
142
0.0208333333333333
142
0.0
142
0.0
142
0.0
142
0.0
142
1.0
142
0.0
142
0.0
142
0.0
142
0.0
142
1.0
179
     0
270
     2
144
0.0208333333333333
144
0.0
144
0.0
144
0.0
144
0.0
144
0.0208333333333333
144
0.0
144
0.0
144
0.0
144
0.0
144
1.0
144
0.0
144
0.0
144
0.0
144
0.0
144
1.0
274
     2
147
0.0208333333333333
147
0.0
147
0.0
147
0.0
147
0.0
147
0.0208333333333333
147
0.0
147
0.0
147
0.0
147
0.0
147
1.0
147
0.0
147
0.0
147
0.0
147
0.0
147
1.0
  0
MATERIAL
  5
2CE8
102
{ACAD_XDICTIONARY
360
2CE9
102
}
102
{ACAD_REACTORS
330
1569
102
}
330
1569
100
AcDbMaterial
  1
ByLayer
 72
     0
 73
     2
 43
0.0208333333333333
 43
0.0
 43
0.0
 43
0.0
 43
0.0
 43
0.0208333333333333
 43
0.0
 43
0.0
 43
0.0
 43
0.0
 43
1.0
 43
0.0
 43
0.0
 43
0.0
 43
0.0
 43
1.0
 77
     0
 78
     2
 47
0.0208333333333333
 47
0.0
 47
0.0
 47
0.0
 47
0.0
 47
0.0208333333333333
 47
0.0
 47
0.0
 47
0.0
 47
0.0
 47
1.0
 47
0.0
 47
0.0
 47
0.0
 47
0.0
 47
1.0
171
     0
172
     2
 49
0.0208333333333333
 49
0.0
 49
0.0
 49
0.0
 49
0.0
 49
0.0208333333333333
 49
0.0
 49
0.0
 49
0.0
 49
0.0
 49
1.0
 49
0.0
 49
0.0
 49
0.0
 49
0.0
 49
1.0
175
     0
176
     2
142
0.0208333333333333
142
0.0
142
0.0
142
0.0
142
0.0
142
0.0208333333333333
142
0.0
142
0.0
142
0.0
142
0.0
142
1.0
142
0.0
142
0.0
142
0.0
142
0.0
142
1.0
179
     0
270
     2
144
0.0208333333333333
144
0.0
144
0.0
144
0.0
144
0.0
144
0.0208333333333333
144
0.0
144
0.0
144
0.0
144
0.0
144
1.0
144
0.0
144
0.0
144
0.0
144
0.0
144
1.0
274
     2
147
0.0208333333333333
147
0.0
147
0.0
147
0.0
147
0.0
147
0.0208333333333333
147
0.0
147
0.0
147
0.0
147
0.0
147
1.0
147
0.0
147
0.0
147
0.0
147
0.0
147
1.0
  0
MATERIAL
  5
2CF8
102
{ACAD_XDICTIONARY
360
2CF9
102
}
102
{ACAD_REACTORS
330
1569
102
}
330
1569
100
AcDbMaterial
  1
Global
 72
     0
 73
     2
 43
0.0208333333333333
 43
0.0
 43
0.0
 43
0.0
 43
0.0
 43
0.0208333333333333
 43
0.0
 43
0.0
 43
0.0
 43
0.0
 43
1.0
 43
0.0
 43
0.0
 43
0.0
 43
0.0
 43
1.0
 77
     0
 78
     2
 47
0.0208333333333333
 47
0.0
 47
0.0
 47
0.0
 47
0.0
 47
0.0208333333333333
 47
0.0
 47
0.0
 47
0.0
 47
0.0
 47
1.0
 47
0.0
 47
0.0
 47
0.0
 47
0.0
 47
1.0
171
     0
172
     2
 49
0.0208333333333333
 49
0.0
 49
0.0
 49
0.0
 49
0.0
 49
0.0208333333333333
 49
0.0
 49
0.0
 49
0.0
 49
0.0
 49
1.0
 49
0.0
 49
0.0
 49
0.0
 49
0.0
 49
1.0
175
     0
176
     2
142
0.0208333333333333
142
0.0
142
0.0
142
0.0
142
0.0
142
0.0208333333333333
142
0.0
142
0.0
142
0.0
142
0.0
142
1.0
142
0.0
142
0.0
142
0.0
142
0.0
142
1.0
179
     0
270
     2
144
0.0208333333333333
144
0.0
144
0.0
144
0.0
144
0.0
144
0.0208333333333333
144
0.0
144
0.0
144
0.0
144
0.0
144
1.0
144
0.0
144
0.0
144
0.0
144
0.0
144
1.0
274
     2
147
0.0208333333333333
147
0.0
147
0.0
147
0.0
147
0.0
147
0.0208333333333333
147
0.0
147
0.0
147
0.0
147
0.0
147
1.0
147
0.0
147
0.0
147
0.0
147
0.0
147
1.0
  0
ACAD_PROXY_OBJECT
  5
2D2C
102
{ACAD_XDICTIONARY
360
3093
102
}
102
{ACAD_REACTORS
330
2D2B
102
}
330
2D2B
100
AcDbProxyObject
 90
      499
 91
      512
 95
  6815769
 70
     0
 93
      744
310
40901902A40600000030400FEFFFFFF815AF46E07A156E7F02B5E8DC0F42B5CFD095374616E646172640002B5E8DC0F42B1CFE405064068000000C10002B5E8DC0F42B1CFC02B5E8DC0F42B1CFE000000304015D90000000000000C03F00
340
11
340
0
340
F
340
0
 94
        0
1001
ACAD_MLEADERVER
1070
     2
  0
MLINESTYLE
  5
1B
102
{ACAD_REACTORS
330
1A
102
}
330
1A
100
AcDbMlineStyle
  2
STANDARD
 70
     0
  3

 62
   256
 51
90.0
 52
90.0
 71
     2
 49
0.5
 62
   256
  6
BYLAYER
 49
-0.5
 62
   256
  6
BYLAYER
  0
PLOTSETTINGS
  5
1526
102
{ACAD_REACTORS
330
766
102
}
330
766
100
AcDbPlotSettings
  1
nashauACADA4
  2
NashauACADA4.pc3
  4
A4
  6

 40
5.111750125885009
 41
5.11176061630249
 42
5.111740112304687
 43
5.11175537109375
 44
209.9733276367187
 45
296.9259948730469
 46
10.0
 47
2.0
 48
17.5
 49
5.0
140
202.5
141
289.96
142
1.0
143
1.0
 70
  1712
 72
     1
 73
     0
 74
     4
  7
candy.ctb
 75
    16
147
1.0
 76
     0
 77
     2
 78
   300
148
-17.5
149
-5.0
  0
ACDBPLACEHOLDER
  5
764
102
{ACAD_REACTORS
330
763
102
}
330
763
  0
ACAD_PROXY_OBJECT
  5
2D1A
102
{ACAD_REACTORS
330
2D19
102
}
330
2D19
100
AcDbProxyObject
 90
      499
 91
      511
 95
  6815769
 70
     0
 93
       49
310
904313A3100598
 94
        0
  0
ACAD_PROXY_OBJECT
  5
2D1B
102
{ACAD_REACTORS
330
2D19
102
}
330
2D19
100
AcDbProxyObject
 90
      499
 91
      511
 95
  6815769
 70
     0
 93
      265
310
90F312F31323822203D2031272D302200000000000000200FC00000000000028407B
 94
        0
  0
ACAD_PROXY_OBJECT
  5
2D1C
102
{ACAD_REACTORS
330
2D19
102
}
330
2D19
100
AcDbProxyObject
 90
      499
 91
      511
 95
  6815769
 70
     0
 93
      257
310
90E312F363422203D2031272D302200000000000000240FC00000000000028407B
 94
        0
  0
ACAD_PROXY_OBJECT
  5
2D1D
102
{ACAD_REACTORS
330
2D19
102
}
330
2D19
100
AcDbProxyObject
 90
      499
 91
      511
 95
  6815769
 70
     0
 93
      257
310
90E312F333222203D2031272D302200000000000000280FC000000000000284040
 94
        0
  0
ACAD_PROXY_OBJECT
  5
2D1E
102
{ACAD_REACTORS
330
2D19
102
}
330
2D19
100
AcDbProxyObject
 90
      499
 91
      511
 95
  6815769
 70
     0
 93
      257
310
90E312F313622203D2031272D3022000000000000002C0FC00000000000028407B
 94
        0
  0
ACAD_PROXY_OBJECT
  5
2D1F
102
{ACAD_REACTORS
330
2D19
102
}
330
2D19
100
AcDbProxyObject
 90
      499
 91
      511
 95
  6815769
 70
     0
 93
      257
310
90E332F333222203D2031272D3022000000000000002E0FC000000000000284040
 94
        0
  0
ACAD_PROXY_OBJECT
  5
2D20
102
{ACAD_REACTORS
330
2D19
102
}
330
2D19
100
AcDbProxyObject
 90
      499
 91
      511
 95
  6815769
 70
     0
 93
      249
310
90D312F3822203D2031272D302200000000000000300FC000000000000284040
 94
        0
  0
ACAD_PROXY_OBJECT
  5
2D21
102
{ACAD_REACTORS
330
2D19
102
}
330
2D19
100
AcDbProxyObject
 90
      499
 91
      511
 95
  6815769
 70
     0
 93
      257
310
90E332F313622203D2031272D302200000000000000320FC000000000000284040
 94
        0
  0
ACAD_PROXY_OBJECT
  5
2D22
102
{ACAD_REACTORS
330
2D19
102
}
330
2D19
100
AcDbProxyObject
 90
      499
 91
      511
 95
  6815769
 70
     0
 93
      249
310
90D312F3422203D2031272D302200000000000000340FC000000000000284040
 94
        0
  0
ACAD_PROXY_OBJECT
  5
2D23
102
{ACAD_REACTORS
330
2D19
102
}
330
2D19
100
AcDbProxyObject
 90
      499
 91
      511
 95
  6815769
 70
     0
 93
      249
310
90D332F3822203D2031272D302200000000000000360FC000000000000284040
 94
        0
  0
ACAD_PROXY_OBJECT
  5
2D24
102
{ACAD_REACTORS
330
2D19
102
}
330
2D19
100
AcDbProxyObject
 90
      499
 91
      511
 95
  6815769
 70
     0
 93
      249
310
90D312F3222203D2031272D302200000000000000380FC000000000000284040
 94
        0
  0
ACAD_PROXY_OBJECT
  5
2D25
102
{ACAD_REACTORS
330
2D19
102
}
330
2D19
100
AcDbProxyObject
 90
      499
 91
      511
 95
  6815769
 70
     0
 93
      249
310
90D332F3422203D2031272D3022000000000000003A0FC000000000000284040
 94
        0
  0
ACAD_PROXY_OBJECT
  5
2D26
102
{ACAD_REACTORS
330
2D19
102
}
330
2D19
100
AcDbProxyObject
 90
      499
 91
      511
 95
  6815769
 70
     0
 93
      169
310
90B3122203D2031272D3022004000000000000284000
 94
        0
  0
ACAD_PROXY_OBJECT
  5
2D27
102
{ACAD_REACTORS
330
2D19
102
}
330
2D19
100
AcDbProxyObject
 90
      499
 91
      511
 95
  6815769
 70
     0
 93
      265
310
90F312D312F3222203D2031272D3022000000000000003E0FC00000000000028407B
 94
        0
  0
ACAD_PROXY_OBJECT
  5
2D28
102
{ACAD_REACTORS
330
2D19
102
}
330
2D19
100
AcDbProxyObject
 90
      499
 91
      511
 95
  6815769
 70
     0
 93
      233
310
90B3322203D2031272D30220000000000000002100000000000000284028
 94
        0
  0
ACAD_PROXY_OBJECT
  5
2D29
102
{ACAD_REACTORS
330
2D19
102
}
330
2D19
100
AcDbProxyObject
 90
      499
 91
      511
 95
  6815769
 70
     0
 93
      233
310
90B3622203D2031272D30220000000000000006100000000000000284000
 94
        0
  0
ACAD_PROXY_OBJECT
  5
2D2A
102
{ACAD_REACTORS
330
2D19
102
}
330
2D19
100
AcDbProxyObject
 90
      499
 91
      511
 95
  6815769
 70
     0
 93
      257
310
90E31272D3022203D2031272D3022000000000000000A10000000000000028407B
 94
        0
  0
ACAD_PROXY_OBJECT
  5
2D2F
102
{ACAD_REACTORS
330
2D2D
102
}
330
2D2D
100
AcDbProxyObject
 90
      499
 91
      513
 95
  6815769
 70
     0
 93
     2581
310
90B496D70657269616C3234004A7400000060001703D0BD6A3719C7F000000180005C0F42F5A8DC671FA229258409E5840A25840A65840B05840B4005C0F42F5A8DC6F1FA330000001800099400000060001703D0BD6A3719C7E5C0F42F5A8DC671FC00000060001703D0BD6A3719C7E808000000000001D07E80AFA4A78B8
310
82C6ACC2E440ACD2CAEEA8F2E0CA40B8CC40444AE8C662447C4A404A78B882C6ACC2E440ACD2CAEEA6CAC6E8D2DEDCA6E8C2E4E892C87C4A5A4A78B882C6ACC2E440ACD2CAEEA6CAC6E8D2DEDC8ADCC892C87C4AB8A0A68682988A404A78B882C6ACC2E440ACD2CAEEA6C6C2D8CA40B8CC40444AE6DC447C4A010000001800
310
10000001900083A0A729A49998803081815AF46E07A158E7E80C8340C16A22A7D90FC9F8CAE65A70A583A07E1FE81C635378FA1F8CAE65A70A583A17E7944A7F127A97E9F8
340
F
340
0
340
0
340
2D2E
340
13
340
F
 94
        0
  0
ACAD_PROXY_OBJECT
  5
1579
102
{ACAD_XDICTIONARY
360
3049
102
}
102
{ACAD_REACTORS
330
1578
102
}
330
1578
100
AcDbProxyObject
 90
      499
 91
      507
 95
  6815769
 70
     0
 93
     1849
310
4254DD185B99185C990028B81E85EB51B8AE3F2E07A17AD46E2B8FC02B5E8DC0F42B1CFD028000000C1008070000C3001FDFF8000000C1003FBFF000000182007F7FE00000030400FEFFC00000060801FDFF8000000C1003FBFF00000018200000000000000681FA0B0000001820100E000186003FBFF000000182007F7FE0
310
0000030400FEFFC00000060801FDFF8000000C1003FBFF000000182007F7FE000000304000AD7A3703D0AC73F4160000003040201C00030C007F7FE00000030400FEFFC00000060801FDFF8000000C1003FBFF000000182007F7FE00000030400FEFFC000000608002
340
F
340
F
340
F
 94
        0
  0
ACAD_PROXY_OBJECT
  5
2D06
102
{ACAD_XDICTIONARY
360
306C
102
}
102
{ACAD_REACTORS
330
2D00
102
}
330
2D00
100
AcDbProxyObject
 90
      499
 91
      510
 95
  6815769
 70
     0
 93
      598
310
430C9915DA5C99599C985B59401049028333333333333E3BF0000000000000FB023FFFFFF0802405048070000C3008000000C800405A000000320014050640A01C00030C010500920280D0
 94
        0
1001
ACAD
1000
AcDbSavedByObjectVersion
1070
     0
  0
ACAD_PROXY_OBJECT
  5
2D05
102
{ACAD_XDICTIONARY
360
306A
102
}
102
{ACAD_REACTORS
330
2D00
102
}
330
2D00
100
AcDbProxyObject
 90
      499
 91
      510
 95
  6815769
 70
     0
 93
      558
310
4190985CDA58C0107406404333333333333E3BF0000000000000FB023FFFFFF08029048070000C3008000000C80040542201C00030C014050640A01C00030C010500920280D6
 94
        0
1001
ACAD
1000
AcDbSavedByObjectVersion
1070
     0
  0
ACAD_PROXY_OBJECT
  5
2D0C
102
{ACAD_XDICTIONARY
360
3078
102
}
102
{ACAD_REACTORS
330
2D00
102
}
330
2D00
100
AcDbProxyObject
 90
      499
 91
      510
 95
  6815769
 70
     0
 93
      598
310
42509C9A59DA1D195B8010C409028333333333333E3BF0000000000000FB023FFFFFF0802405048070000C3008000000C80040542201C00030C014050640A01C00030C010500920280A657
 94
        0
1001
ACAD
1000
AcDbSavedByObjectVersion
1070
     0
  0
ACAD_PROXY_OBJECT
  5
2D10
102
{ACAD_XDICTIONARY
360
3080
102
}
102
{ACAD_REACTORS
330
2D00
102
}
330
2D00
100
AcDbProxyObject
 90
      499
 91
      510
 95
  6815769
 70
     0
 93
      622
310
4310DBDB1BDC90DA185B99D9401104090240C333333333333E3BF0000000000000FB0220202030802405048070000C3008000000C800405422202020308014050640A01C00030C010500920280D6
 94
        0
1001
ACAD
1000
AcDbSavedByObjectVersion
1070
     0
  0
ACAD_PROXY_OBJECT
  5
2D09
102
{ACAD_XDICTIONARY
360
3072
102
}
102
{ACAD_REACTORS
330
2D00
102
}
330
2D00
100
AcDbProxyObject
 90
      499
 91
      510
 95
  6815769
 70
     0
 93
      670
310
42D0DBDB98D95C1D1D585B0010940D028333333333333E3BF0000000000000FB023FFFFFF0802409028070000C3008000000C800404000000000060664042201C00030C014050640A01C00030C010300920280D0
 94
        0
1001
ACAD
1000
AcDbSavedByObjectVersion
1070
     0
  0
ACAD_PROXY_OBJECT
  5
2D0B
102
{ACAD_XDICTIONARY
360
3076
102
}
102
{ACAD_REACTORS
330
2D00
102
}
330
2D00
100
AcDbProxyObject
 90
      499
 91
      510
 95
  6815769
 70
     0
 93
      582
310
41111A5B4010B409028333333333333E3BF0000000000000FB023FFFFFF0802405048070000C3008000000C80040542201C00030C014050640A01C00030C01050092028099DFFFFFF4
 94
        0
1001
ACAD
1000
AcDbSavedByObjectVersion
1070
     0
  0
ACAD_PROXY_OBJECT
  5
2D18
102
{ACAD_XDICTIONARY
360
3090
102
}
102
{ACAD_REACTORS
330
2D00
102
}
330
2D00
100
AcDbProxyObject
 90
      499
 91
      510
 95
  6815769
 70
     0
 93
      622
310
43515919D950DBDB1BDC93D99980116409028333333333333E3BF0000000000000FB023FFFFFF0802405048070000C3008000000C80040542201C00030C014050640A01C00030C010500920280D4
 94
        0
1001
ACAD
1000
AcDbSavedByObjectVersion
1070
     0
  0
ACAD_PROXY_OBJECT
  5
2D0F
102
{ACAD_XDICTIONARY
360
307E
102
}
102
{ACAD_REACTORS
330
2D00
102
}
330
2D00
100
AcDbProxyObject
 90
      499
 91
      510
 95
  6815769
 70
     0
 93
      614
310
43119858D95C185D1D195C9B8010F409028333333333333E3BF0000000000000FB023FFFFFF0802405048070000C3008000000C80040542201C00030C014050640A01C00030C010500920280D4
 94
        0
1001
ACAD
1000
AcDbSavedByObjectVersion
1070
     0
  0
ACAD_PROXY_OBJECT
  5
2D01
102
{ACAD_XDICTIONARY
360
3062
102
}
102
{ACAD_REACTORS
330
2D00
102
}
330
2D00
100
AcDbProxyObject
 90
      499
 91
      510
 95
  6815769
 70
     0
 93
      550
310
41519B185D00240901404333333333333E3BF0000000000000F9023FFFFFF080102A8070000C3008000000C80040542201C00030C014050640A01C00030C010500920286D4
 94
        0
1001
ACAD
1000
AcDbSavedByObjectVersion
1070
     0
  0
ACAD_PROXY_OBJECT
  5
2D02
102
{ACAD_XDICTIONARY
360
3064
102
}
102
{ACAD_REACTORS
330
2D00
102
}
330
2D00
100
AcDbProxyObject
 90
      499
 91
      510
 95
  6815769
 70
     0
 93
      630
310
43919B185D15DA5D1A115919D95CC010140901404333333333333E3BF0000000000000F9023FFFFFF0801024068070000C3008000000C800405A000000320014050640A01C00030C010500920286D4
 94
        0
1001
ACAD
1000
AcDbSavedByObjectVersion
1070
     0
  0
ACAD_PROXY_OBJECT
  5
2D03
102
{ACAD_XDICTIONARY
360
3066
102
}
102
{ACAD_REACTORS
330
2D00
102
}
330
2D00
100
AcDbProxyObject
 90
      499
 91
      510
 95
  6815769
 70
     0
 93
      574
310
4211DBDD5C985D590010240902404333333333333E3BF0000000000000F9023FFFFFF080102A8070000C3008000000C800405A01C00030C014050640A01C00030C010500920286D6
 94
        0
1001
ACAD
1000
AcDbSavedByObjectVersion
1070
     0
  0
ACAD_PROXY_OBJECT
  5
2D04
102
{ACAD_XDICTIONARY
360
3068
102
}
102
{ACAD_REACTORS
330
2D00
102
}
330
2D00
100
AcDbProxyObject
 90
      499
 91
      510
 95
  6815769
 70
     0
 93
      654
310
4451DBDD5C985D5915DA5D1A115919D95CC010340902404333333333333E3BF0000000000000F9023FFFFFF0801024068070000C3008000000C800405A000000320014050640A01C00030C010500920286D4
 94
        0
1001
ACAD
1000
AcDbSavedByObjectVersion
1070
     0
  0
ACAD_PROXY_OBJECT
  5
2D08
102
{ACAD_XDICTIONARY
360
3070
102
}
102
{ACAD_REACTORS
330
2D00
102
}
330
2D00
100
AcDbProxyObject
 90
      499
 91
      510
 95
  6815769
 70
     0
 93
      638
310
41D21A5919195B8010640502408333333333333E3BF0000000000000FB023FFFFFF0802409028070000C3008000000C8004080000000000004440A000000320014050640A01C00030C010300920280D2
 94
        0
1001
ACAD
1000
AcDbSavedByObjectVersion
1070
     0
  0
ACAD_PROXY_OBJECT
  5
2D16
102
{ACAD_XDICTIONARY
360
308C
102
}
102
{ACAD_REACTORS
330
2D00
102
}
330
2D00
100
AcDbProxyObject
 90
      499
 91
      510
 95
  6815769
 70
     0
 93
      598
310
42929A5D1D195C93D99980114409028333333333333E3BF0000000000000FB023FFFFFF0802405048070000C3008000000C80040542A01C00030C014050640A01C00030C010500920280D4
 94
        0
1001
ACAD
1000
AcDbSavedByObjectVersion
1070
     0
  0
ACAD_PROXY_OBJECT
  5
2D0E
102
{ACAD_XDICTIONARY
360
307C
102
}
102
{ACAD_REACTORS
330
2D00
102
}
330
2D00
100
AcDbProxyObject
 90
      499
 91
      510
 95
  6815769
 70
     0
 93
      614
310
43131A5B995C185D1D195C9B8010E409028333333333333E3BF0000000000000FB023FFFFFF0802405048070000C3008000000C80041D42201C00030C014050640A01C00030C010500920E80D6
 94
        0
1001
ACAD
1000
AcDbSavedByObjectVersion
1070
     0
  0
ACAD_PROXY_OBJECT
  5
2D17
102
{ACAD_XDICTIONARY
360
308E
102
}
102
{ACAD_REACTORS
330
2D00
102
}
330
2D00
100
AcDbProxyObject
 90
      499
 91
      510
 95
  6815769
 70
     0
 93
      614
310
4313DD995C9A185B99D3D99980115409028333333333333E3BF0000000000000FB023FFFFFF0802405048070000C3008000000C80040542601C00030C014050640A01C00030C010500920280D4
 94
        0
1001
ACAD
1000
AcDbSavedByObjectVersion
1070
     0
  0
ACAD_PROXY_OBJECT
  5
2D0A
102
{ACAD_XDICTIONARY
360
3074
102
}
102
{ACAD_REACTORS
330
2D00
102
}
330
2D00
100
AcDbProxyObject
 90
      499
 91
      510
 95
  6815769
 70
     0
 93
      590
310
429499585B1A5CDD1A58C0108409028333333333333E3BF0000000000000F9023FFFFFF080102A8070000C3008000000C800405422000000320014050640A01C00030C010300920286D1
 94
        0
1001
ACAD
1000
AcDbSavedByObjectVersion
1070
     0
  0
ACAD_PROXY_OBJECT
  5
2D15
102
{ACAD_XDICTIONARY
360
308A
102
}
102
{ACAD_REACTORS
330
2D00
102
}
330
2D00
100
AcDbProxyObject
 90
      499
 91
      510
 95
  6815769
 70
     0
 93
      582
310
41D4DA185919590011B40902404333333333333E3BF0000000000000F9023FFFFFF0801029048070000C3008000000C800405422000000320014050640A1E1E1E308010300920282D0
 94
        0
1001
ACAD
1000
AcDbSavedByObjectVersion
1070
     0
  0
ACAD_PROXY_OBJECT
  5
2D14
102
{ACAD_XDICTIONARY
360
3088
102
}
102
{ACAD_REACTORS
330
2D00
102
}
330
2D00
100
AcDbProxyObject
 90
      499
 91
      510
 95
  6815769
 70
     0
 93
      678
310
4494DA18591959081DDA5D1A08195919D95CC011A40902404333333333333E3BF0000000000000F9023FFFFFF0801024050A8070000C3008000000C800409422000000320014050640A01C00030C010300920282D2
 94
        0
1001
ACAD
1000
AcDbSavedByObjectVersion
1070
     0
  0
ACAD_PROXY_OBJECT
  5
2D11
102
{ACAD_XDICTIONARY
360
3082
102
}
102
{ACAD_REACTORS
330
2D00
102
}
330
2D00
100
AcDbProxyObject
 90
      499
 91
      510
 95
  6815769
 70
     0
 93
      710
310
43D4DA1859195CC81BD98811DC985E401174090240C333333333333E3BF0000000000000FB023FFFFFF0802409028070000C3008070000C300404000000000000444042201C00030C014050640A01C00030C010300920280D0
 94
        0
1001
ACAD
1000
AcDbSavedByObjectVersion
1070
     0
  0
ACAD_PROXY_OBJECT
  5
2D12
102
{ACAD_XDICTIONARY
360
3084
102
}
102
{ACAD_REACTORS
330
2D00
102
}
330
2D00
100
AcDbProxyObject
 90
      499
 91
      510
 95
  6815769
 70
     0
 93
      654
310
4214DAD95D18DA1E4011840502408333333333333E3BF0000000000000FB023FFFFFF0802409028070000C3008070000C300404000000000000444042E01C00030C014050640A01C00030C010600920280D2
 94
        0
1001
ACAD
1000
AcDbSavedByObjectVersion
1070
     0
  0
ACAD_PROXY_OBJECT
  5
2D0D
102
{ACAD_XDICTIONARY
360
307A
102
}
102
{ACAD_REACTORS
330
2D00
102
}
330
2D00
100
AcDbProxyObject
 90
      499
 91
      510
 95
  6815769
 70
     0
 93
      582
310
42151A1A58DAD95B8010D409028333333333333E3BF0000000000000FB023FFFFFF0802405048070000C3008000000C80040543201C00030C014050640A01C00030C010500920280D4
 94
        0
1001
ACAD
1000
AcDbSavedByObjectVersion
1070
     0
  0
ACAD_PROXY_OBJECT
  5
2D07
102
{ACAD_XDICTIONARY
360
306E
102
}
102
{ACAD_REACTORS
330
2D00
102
}
330
2D00
100
AcDbProxyObject
 90
      499
 91
      510
 95
  6815769
 70
     0
 93
      582
310
4295DA5C99599C985B59401059028333333333333E3BF0000000000000FB023FFFFFF0802405048070000C3008000000C800405A000000320014050640A01C00030C010300920280D2
 94
        0
1001
ACAD
1000
AcDbSavedByObjectVersion
1070
     0
  0
ACAD_PROXY_OBJECT
  5
2D13
102
{ACAD_XDICTIONARY
360
3086
102
}
102
{ACAD_REACTORS
330
2D00
102
}
330
2D00
100
AcDbProxyObject
 90
      499
 91
      510
 95
  6815769
 70
     0
 93
      574
310
41960B54985E4011940902404000000000000E03F0000000000000FB023FFFFFF0801014068070000C3008000000C80040542201C00030C014050640A01C00030C010300920286D0
 94
        0
1001
ACAD
1000
AcDbSavedByObjectVersion
1070
     0
  0
DICTIONARYVAR
  5
2DC0
102
{ACAD_REACTORS
330
38
102
}
330
38
100
DictionaryVariables
280
     0
  1
1:1
  0
DICTIONARYVAR
  5
2DBC
102
{ACAD_REACTORS
330
38
102
}
330
38
100
DictionaryVariables
280
     0
  1
STANDARD
  0
DICTIONARYVAR
  5
158E
102
{ACAD_REACTORS
330
38
102
}
330
38
100
DictionaryVariables
280
     0
  1
STANDARD
  0
DICTIONARYVAR
  5
2DBD
102
{ACAD_REACTORS
330
38
102
}
330
38
100
DictionaryVariables
280
     0
  1
Imperial24
  0
DICTIONARYVAR
  5
2DBE
102
{ACAD_REACTORS
330
38
102
}
330
38
100
DictionaryVariables
280
     0
  1
Imperial24
  0
DICTIONARYVAR
  5
39
102
{ACAD_REACTORS
330
38
102
}
330
38
100
DictionaryVariables
280
     0
  1
0
  0
DICTIONARYVAR
  5
154D
102
{ACAD_REACTORS
330
38
102
}
330
38
100
DictionaryVariables
280
     0
  1
1
  0
DICTIONARYVAR
  5
2DC2
102
{ACAD_REACTORS
330
38
102
}
330
38
100
DictionaryVariables
280
     0
  1
1
  0
DICTIONARYVAR
  5
2DC3
102
{ACAD_REACTORS
330
38
102
}
330
38
100
DictionaryVariables
280
     0
  1
15
  0
DICTIONARYVAR
  5
2DC1
102
{ACAD_REACTORS
330
38
102
}
330
38
100
DictionaryVariables
280
     0
  1
0
  0
DICTIONARYVAR
  5
2DBF
102
{ACAD_REACTORS
330
38
102
}
330
38
100
DictionaryVariables
280
     0
  1
0
  0
DICTIONARYVAR
  5
623
102
{ACAD_REACTORS
330
38
102
}
330
38
100
DictionaryVariables
280
     0
  1
96
  0
DICTIONARY
  5
3054
102
{ACAD_REACTORS
330
3052
102
}
330
3052
100
AcDbDictionary
281
     1
  0
DICTIONARY
  5
3053
102
{ACAD_REACTORS
330
3052
102
}
330
3052
100
AcDbDictionary
281
     1
  3
8796074042704
350
304D
  3
8796074042720
350
304E
  3
8796074042736
350
304F
  3
8796074042752
350
3050
  3
8796074042768
350
3051
  0
DICTIONARY
  5
2CF1
330
2CF0
100
AcDbDictionary
280
     1
281
     1
  3
ACAD_XREC_ROUNDTRIP
360
3060
  3
BUMPTILE
360
2CF3
  3
DIFFUSETILE
360
2CF2
  3
OPACITYTILE
360
2CF6
  3
REFLECTIONTILE
360
2CF5
  3
REFRACTIONTILE
360
2CF7
  3
SPECULARTILE
360
2CF4
  0
DICTIONARY
  5
2CE9
330
2CE8
100
AcDbDictionary
280
     1
281
     1
  3
ACAD_XREC_ROUNDTRIP
360
305F
  3
BUMPTILE
360
2CEB
  3
DIFFUSETILE
360
2CEA
  3
OPACITYTILE
360
2CEE
  3
REFLECTIONTILE
360
2CED
  3
REFRACTIONTILE
360
2CEF
  3
SPECULARTILE
360
2CEC
  0
DICTIONARY
  5
2CF9
330
2CF8
100
AcDbDictionary
280
     1
281
     1
  3
ACAD_XREC_ROUNDTRIP
360
3061
  3
BUMPTILE
360
2CFB
  3
DIFFUSETILE
360
2CFA
  3
OPACITYTILE
360
2CFE
  3
REFLECTIONTILE
360
2CFD
  3
REFRACTIONTILE
360
2CFF
  3
SPECULARTILE
360
2CFC
  0
DICTIONARY
  5
3093
330
2D2C
100
AcDbDictionary
280
     1
281
     1
  3
ACAD_XREC_ROUNDTRIP
360
3094
  0
DICTIONARY
  5
3049
330
1579
100
AcDbDictionary
280
     1
281
     1
  3
ACAD_ROUNDTRIP_2008_TABLESTYLE_CELLSTYLEMAP
360
304A
  3
ACAD_XREC_ROUNDTRIP
360
3058
  0
DICTIONARY
  5
306C
330
2D06
100
AcDbDictionary
280
     1
281
     1
  3
ACAD_XREC_ROUNDTRIP
360
306D
  0
DICTIONARY
  5
306A
330
2D05
100
AcDbDictionary
280
     1
281
     1
  3
ACAD_XREC_ROUNDTRIP
360
306B
  0
DICTIONARY
  5
3078
330
2D0C
100
AcDbDictionary
280
     1
281
     1
  3
ACAD_XREC_ROUNDTRIP
360
3079
  0
DICTIONARY
  5
3080
330
2D10
100
AcDbDictionary
280
     1
281
     1
  3
ACAD_XREC_ROUNDTRIP
360
3081
  0
DICTIONARY
  5
3072
330
2D09
100
AcDbDictionary
280
     1
281
     1
  3
ACAD_XREC_ROUNDTRIP
360
3073
  0
DICTIONARY
  5
3076
330
2D0B
100
AcDbDictionary
280
     1
281
     1
  3
ACAD_XREC_ROUNDTRIP
360
3077
  0
DICTIONARY
  5
3090
330
2D18
100
AcDbDictionary
280
     1
281
     1
  3
ACAD_XREC_ROUNDTRIP
360
3091
  0
DICTIONARY
  5
307E
330
2D0F
100
AcDbDictionary
280
     1
281
     1
  3
ACAD_XREC_ROUNDTRIP
360
307F
  0
DICTIONARY
  5
3062
330
2D01
100
AcDbDictionary
280
     1
281
     1
  3
ACAD_XREC_ROUNDTRIP
360
3063
  0
DICTIONARY
  5
3064
330
2D02
100
AcDbDictionary
280
     1
281
     1
  3
ACAD_XREC_ROUNDTRIP
360
3065
  0
DICTIONARY
  5
3066
330
2D03
100
AcDbDictionary
280
     1
281
     1
  3
ACAD_XREC_ROUNDTRIP
360
3067
  0
DICTIONARY
  5
3068
330
2D04
100
AcDbDictionary
280
     1
281
     1
  3
ACAD_XREC_ROUNDTRIP
360
3069
  0
DICTIONARY
  5
3070
330
2D08
100
AcDbDictionary
280
     1
281
     1
  3
ACAD_XREC_ROUNDTRIP
360
3071
  0
DICTIONARY
  5
308C
330
2D16
100
AcDbDictionary
280
     1
281
     1
  3
ACAD_XREC_ROUNDTRIP
360
308D
  0
DICTIONARY
  5
307C
330
2D0E
100
AcDbDictionary
280
     1
281
     1
  3
ACAD_XREC_ROUNDTRIP
360
307D
  0
DICTIONARY
  5
308E
330
2D17
100
AcDbDictionary
280
     1
281
     1
  3
ACAD_XREC_ROUNDTRIP
360
308F
  0
DICTIONARY
  5
3074
330
2D0A
100
AcDbDictionary
280
     1
281
     1
  3
ACAD_XREC_ROUNDTRIP
360
3075
  0
DICTIONARY
  5
308A
330
2D15
100
AcDbDictionary
280
     1
281
     1
  3
ACAD_XREC_ROUNDTRIP
360
308B
  0
DICTIONARY
  5
3088
330
2D14
100
AcDbDictionary
280
     1
281
     1
  3
ACAD_XREC_ROUNDTRIP
360
3089
  0
DICTIONARY
  5
3082
330
2D11
100
AcDbDictionary
280
     1
281
     1
  3
ACAD_XREC_ROUNDTRIP
360
3083
  0
DICTIONARY
  5
3084
330
2D12
100
AcDbDictionary
280
     1
281
     1
  3
ACAD_XREC_ROUNDTRIP
360
3085
  0
DICTIONARY
  5
307A
330
2D0D
100
AcDbDictionary
280
     1
281
     1
  3
ACAD_XREC_ROUNDTRIP
360
307B
  0
DICTIONARY
  5
306E
330
2D07
100
AcDbDictionary
280
     1
281
     1
  3
ACAD_XREC_ROUNDTRIP
360
306F
  0
DICTIONARY
  5
3086
330
2D13
100
AcDbDictionary
280
     1
281
     1
  3
ACAD_XREC_ROUNDTRIP
360
3087
  0
XRECORD
  5
304D
102
{ACAD_REACTORS
330
3053
102
}
330
3053
100
AcDbXrecord
280
     1
  1
AcDb_Thumbnail_Schema
102
{ATTRRECORD
341
304E
  2
AcDbDs::TreatedAsObjectData
280
     1
291
     1
102
ATTRRECORD}
102
{ATTRRECORD
341
304F
  2
AcDbDs::Legacy
280
     1
291
     1
102
ATTRRECORD}
  2
AcDbDs::ID
280
    10
 91
        8
102
{ATTRRECORD
341
3050
  2
AcDs:Indexable
280
     1
291
     1
102
ATTRRECORD}
102
{ATTRRECORD
341
3051
  2
AcDbDs::HandleAttribute
280
     7
282
     1
102
ATTRRECORD}
  2
Thumbnail_Data
280
    15
 91
        0
  0
XRECORD
  5
304E
102
{ACAD_REACTORS
330
3053
102
}
330
3053
100
AcDbXrecord
280
     1
  1
AcDbDs::TreatedAsObjectDataSchema
  2
AcDbDs::TreatedAsObjectData
280
     1
 91
        0
  0
XRECORD
  5
304F
102
{ACAD_REACTORS
330
3053
102
}
330
3053
100
AcDbXrecord
280
     1
  1
AcDbDs::LegacySchema
  2
AcDbDs::Legacy
280
     1
 91
        0
  0
XRECORD
  5
3050
102
{ACAD_REACTORS
330
3053
102
}
330
3053
100
AcDbXrecord
280
     1
  1
AcDbDs::IndexedPropertySchema
  2
AcDs:Indexable
280
     1
 91
        0
  0
XRECORD
  5
3051
102
{ACAD_REACTORS
330
3053
102
}
330
3053
100
AcDbXrecord
280
     1
  1
AcDbDs::HandleAttributeSchema
  2
AcDbDs::HandleAttribute
280
     7
 91
        1
284
     1
  0
XRECORD
  5
3060
102
{ACAD_REACTORS
330
2CF1
102
}
330
2CF1
100
AcDbXrecord
280
     1
102
MATERIAL
148
0.0
149
0.0
149
0.0
 93
        0
 94
      127
282
     0
 72
     0
 77
     0
171
     0
175
     0
179
     0
273
     0
  0
XRECORD
  5
2CF3
102
{ACAD_REACTORS
330
2CF1
102
}
330
2CF1
100
AcDbXrecord
280
     1
270
     1
271
     1
  0
XRECORD
  5
2CF2
102
{ACAD_REACTORS
330
2CF1
102
}
330
2CF1
100
AcDbXrecord
280
     1
270
     1
271
     1
  0
XRECORD
  5
2CF6
102
{ACAD_REACTORS
330
2CF1
102
}
330
2CF1
100
AcDbXrecord
280
     1
270
     1
271
     1
  0
XRECORD
  5
2CF5
102
{ACAD_REACTORS
330
2CF1
102
}
330
2CF1
100
AcDbXrecord
280
     1
270
     1
271
     1
  0
XRECORD
  5
2CF7
102
{ACAD_REACTORS
330
2CF1
102
}
330
2CF1
100
AcDbXrecord
280
     1
270
     1
271
     1
  0
XRECORD
  5
2CF4
102
{ACAD_REACTORS
330
2CF1
102
}
330
2CF1
100
AcDbXrecord
280
     1
270
     1
271
     1
  0
XRECORD
  5
305F
102
{ACAD_REACTORS
330
2CE9
102
}
330
2CE9
100
AcDbXrecord
280
     1
102
MATERIAL
148
0.0
149
0.0
149
0.0
 93
        0
 94
      127
282
     0
 72
     0
 77
     0
171
     0
175
     0
179
     0
273
     0
  0
XRECORD
  5
2CEB
102
{ACAD_REACTORS
330
2CE9
102
}
330
2CE9
100
AcDbXrecord
280
     1
270
     1
271
     1
  0
XRECORD
  5
2CEA
102
{ACAD_REACTORS
330
2CE9
102
}
330
2CE9
100
AcDbXrecord
280
     1
270
     1
271
     1
  0
XRECORD
  5
2CEE
102
{ACAD_REACTORS
330
2CE9
102
}
330
2CE9
100
AcDbXrecord
280
     1
270
     1
271
     1
  0
XRECORD
  5
2CED
102
{ACAD_REACTORS
330
2CE9
102
}
330
2CE9
100
AcDbXrecord
280
     1
270
     1
271
     1
  0
XRECORD
  5
2CEF
102
{ACAD_REACTORS
330
2CE9
102
}
330
2CE9
100
AcDbXrecord
280
     1
270
     1
271
     1
  0
XRECORD
  5
2CEC
102
{ACAD_REACTORS
330
2CE9
102
}
330
2CE9
100
AcDbXrecord
280
     1
270
     1
271
     1
  0
XRECORD
  5
3061
102
{ACAD_REACTORS
330
2CF9
102
}
330
2CF9
100
AcDbXrecord
280
     1
102
MATERIAL
148
0.0
149
0.0
149
0.0
 93
        0
 94
      127
282
     0
 72
     0
 77
     0
171
     0
175
     0
179
     0
273
     0
  0
XRECORD
  5
2CFB
102
{ACAD_REACTORS
330
2CF9
102
}
330
2CF9
100
AcDbXrecord
280
     1
270
     1
271
     1
  0
XRECORD
  5
2CFA
102
{ACAD_REACTORS
330
2CF9
102
}
330
2CF9
100
AcDbXrecord
280
     1
270
     1
271
     1
  0
XRECORD
  5
2CFE
102
{ACAD_REACTORS
330
2CF9
102
}
330
2CF9
100
AcDbXrecord
280
     1
270
     1
271
     1
  0
XRECORD
  5
2CFD
102
{ACAD_REACTORS
330
2CF9
102
}
330
2CF9
100
AcDbXrecord
280
     1
270
     1
271
     1
  0
XRECORD
  5
2CFF
102
{ACAD_REACTORS
330
2CF9
102
}
330
2CF9
100
AcDbXrecord
280
     1
270
     1
271
     1
  0
XRECORD
  5
2CFC
102
{ACAD_REACTORS
330
2CF9
102
}
330
2CF9
100
AcDbXrecord
280
     1
270
     1
271
     1
  0
XRECORD
  5
3094
102
{ACAD_REACTORS
330
3093
102
}
330
3093
100
AcDbXrecord
280
     1
102
ACAD_ROUNDTRIP_2012_MLEADER_STYLE
298
     1
  0
ACAD_PROXY_OBJECT
  5
304A
102
{ACAD_REACTORS
330
3049
102
}
330
3049
100
AcDbProxyObject
 90
      499
 91
      515
 95
  6815769
 70
     0
 93
     4020
310
40D054060020000020000003200101A412A5058000000C100000000000000340FE419019018000000C1003FBFFFFFE02B5E8DC0F42A9CFD029018000000C1003FBFFFFFE02B5E8DC0F42A9CFD049018000000C1003FBFFFFFE02B5E8DC0F42A9CFD089018000000C1003FBFFFFFE02B5E8DC0F42A9CFD109018000000C1003
310
FBFFFFFE02B5E8DC0F42A9CFD209018000000C1003FBFFFFFE02B5E8DC0F42A9CFD01405075F5449544C450041501A8000000C800406904A9416000000304000AD7A3703D0AC73F90640640600000030400FEFFFFFF80AD7A3703D0AA73F40A40600000030400FEFFFFFF80AD7A3703D0AA73F41240600000030400FEFFFFF
310
F80AD7A3703D0AA73F42240600000030400FEFFFFFF80AD7A3703D0AA73F44240600000030400FEFFFFFF80AD7A3703D0AA73F48240600000030400FEFFFFFF80AD7A3703D0AA73F409014217D2115051115480105406A0000003200101A412A5028000000C10002B5E8DC0F42B1CFE419019018000000C1003FBFFFFFE02B
310
5E8DC0F42A9CFD029018000000C1003FBFFFFFE02B5E8DC0F42A9CFD049018000000C1003FBFFFFFE02B5E8DC0F42A9CFD089018000000C1003FBFFFFFE02B5E8DC0F42A9CFD109018000000C1003FBFFFFFE02B5E8DC0F42A9CFD209018000000C1003FBFFFFFE02B5E8DC0F42A9CFD03409065F44415441000
340
F
340
0
340
0
340
0
340
0
340
0
340
0
340
F
340
0
340
0
340
0
340
0
340
0
340
0
340
F
340
0
340
0
340
0
340
0
340
0
340
0
 94
        0
  0
XRECORD
  5
3058
102
{ACAD_REACTORS
330
3049
102
}
330
3049
100
AcDbXrecord
280
     1
102
ACAD_ROUNDTRIP_PRE2007_TABLESTYLE
 90
        4
 91
        0
  1

 92
        4
 93
        0
  2

 94
        4
 95
        0
  3

  0
XRECORD
  5
306D
102
{ACAD_REACTORS
330
306C
102
}
330
306C
100
AcDbXrecord
280
     1
102
RTVSPost2010Prop28
280
     1
102
RTVSPost2010PropOp28
 70
     1
102
RTVSPost2010Prop29
280
     1
102
RTVSPost2010PropOp29
 70
     1
102
RTVSPost2010Prop30
280
     0
102
RTVSPost2010PropOp30
 70
     1
102
RTVSPost2010Prop31
280
     0
102
RTVSPost2010PropOp31
 70
     1
102
RTVSPost2010Prop32
280
     0
102
RTVSPost2010PropOp32
 70
     1
102
RTVSPost2010Prop33
280
     0
102
RTVSPost2010PropOp33
 70
     1
102
RTVSPost2010Prop34
280
     0
102
RTVSPost2010PropOp34
 70
     1
102
RTVSPost2010Prop35
280
     0
102
RTVSPost2010PropOp35
 70
     1
102
RTVSPost2010Prop36
280
     0
102
RTVSPost2010PropOp36
 70
     1
102
RTVSPost2010Prop37
 90
       50
102
RTVSPost2010PropOp37
 70
     1
102
RTVSPost2010Prop38
140
0.0
102
RTVSPost2010PropOp38
 70
     1
102
RTVSPost2010Prop39
140
1.0
102
RTVSPost2010PropOp39
 70
     1
102
RTVSPost2010Prop40
 90
        0
102
RTVSPost2010PropOp40
 70
     1
102
RTVSPost2010Prop41ColorIndex
 90
       18
102
RTVSPost2010Prop41ColorRGB
 90
        0
102
RTVSPost2010PropOp41
 70
     1
102
RTVSPost2010Prop42
 90
       50
102
RTVSPost2010PropOp42
 70
     1
102
RTVSPost2010Prop43
 90
        3
102
RTVSPost2010PropOp43
 70
     1
102
RTVSPost2010Prop44ColorIndex
 90
        5
102
RTVSPost2010Prop44ColorRGB
 90
      255
102
RTVSPost2010PropOp44
 70
     1
102
RTVSPost2010Prop45
280
     0
102
RTVSPost2010PropOp45
 70
     1
102
RTVSPost2010Prop46
 90
       50
102
RTVSPost2010PropOp46
 70
     1
102
RTVSPost2010Prop47
 90
       50
102
RTVSPost2010PropOp47
 70
     1
102
RTVSPost2010Prop48
 90
       50
102
RTVSPost2010PropOp48
 70
     1
102
RTVSPost2010Prop49
280
     0
102
RTVSPost2010PropOp49
 70
     1
102
RTVSPost2010Prop50
 90
       50
102
RTVSPost2010PropOp50
 70
     1
102
RTVSPost2010Prop51ColorIndex
 90
      256
102
RTVSPost2010Prop51ColorRGB
 90
-16777216
102
RTVSPost2010PropOp51
 70
     0
102
RTVSPost2010Prop52
140
1.0
102
RTVSPost2010PropOp52
 70
     0
102
RTVSPost2010Prop53
 90
        2
102
RTVSPost2010PropOp53
 70
     1
102
RTVSPost2010Prop54
  1
strokes_ogs.tif
102
RTVSPost2010PropOp54
 70
     1
102
RTVSPost2010Prop55
280
     0
102
RTVSPost2010PropOp55
 70
     1
102
RTVSPost2010Prop56
140
1.0
102
RTVSPost2010PropOp56
 70
     1
102
RTVSPost2010Prop57
140
1.0
102
RTVSPost2010PropOp57
 70
     1
102
RTVSPropertyOp0
 70
     1
102
RTVSPropertyOp1
 70
     1
102
RTVSPropertyOp2
 70
     1
102
RTVSPropertyOp3
 70
     1
102
RTVSPropertyOp4
 70
     1
102
RTVSPropertyOp5
 70
     1
102
RTVSPropertyOp6
 70
     1
102
RTVSPropertyOp7
 70
     1
102
RTVSPropertyOp8
 70
     1
102
RTVSPropertyOp9
 70
     1
102
RTVSPropertyOp10
 70
     1
102
RTVSPropertyOp11
 70
     1
102
RTVSPropertyOp12
 70
     1
102
RTVSPropertyOp13
 70
     1
102
RTVSPropertyOp14
 70
     1
102
RTVSPropertyOp15
 70
     1
102
RTVSPropertyOp16
 70
     1
102
RTVSPropertyOp17
 70
     1
102
RTVSPropertyOp18
 70
     1
102
RTVSPropertyOp19
 70
     1
102
RTVSPropertyOp20
 70
     1
102
RTVSPropertyOp21
 70
     1
102
RTVSPropertyOp22
 70
     1
102
RTVSPropertyOp23
 70
     1
102
RTVSPropertyOp24
 70
     1
102
RTVSPropertyOp25
 70
     1
102
RTVSPropertyOp26
 70
     1
102
RTVSPropertyOp27
 70
     1
102
RTVSPropertyOp28
 70
     1
102
RTVSPropertyOp29
 70
     1
102
RTVSPropertyOp30
 70
     1
102
RTVSPropertyOp31
 70
     1
102
RTVSPropertyOp32
 70
     1
102
RTVSPropertyOp33
 70
     1
102
RTVSPropertyOp34
 70
     1
102
RTVSPropertyOp35
 70
     1
102
RTVSPropertyOp36
 70
     1
102
RTVSPropertyOp37
 70
     1
102
RTVSPropertyOp38
 70
     1
102
RTVSPropertyOp39
 70
     1
102
RTVSPropertyOp40
 70
     1
102
RTVSPropertyOp41
 70
     1
102
RTVSPropertyOp42
 70
     1
102
RTVSPropertyOp43
 70
     1
102
RTVSPropertyOp44
 70
     1
102
RTVSPropertyOp45
 70
     1
102
RTVSPropertyOp46
 70
     1
102
RTVSPropertyOp47
 70
     1
102
RTVSPropertyOp48
 70
     1
102
RTVSPropertyOp49
 70
     1
102
RTVSPropertyOp50
 70
     1
102
RTVSPropertyOp51
 70
     0
102
RTVSPropertyOp52
 70
     0
102
RTVSPropertyOp53
 70
     1
102
RTVSPropertyOp54
 70
     1
102
RTVSPropertyOp55
 70
     1
102
RTVSPropertyOp56
 70
     1
102
RTVSPropertyOp57
 70
     1
102
RTVSPropertyOp58
 70
     1
102
RTVSPropertyOp59
 70
     1
102
RTVSPropertyOp60
 70
     1
102
RTVSPropertyOp61
 70
     1
102
RTVSPropertyOp62
 70
     1
  0
XRECORD
  5
306B
102
{ACAD_REACTORS
330
306A
102
}
330
306A
100
AcDbXrecord
280
     1
102
RTVSPost2010Prop28
280
     0
102
RTVSPost2010PropOp28
 70
     1
102
RTVSPost2010Prop29
280
     1
102
RTVSPost2010PropOp29
 70
     1
102
RTVSPost2010Prop30
280
     1
102
RTVSPost2010PropOp30
 70
     1
102
RTVSPost2010Prop31
280
     0
102
RTVSPost2010PropOp31
 70
     1
102
RTVSPost2010Prop32
280
     0
102
RTVSPost2010PropOp32
 70
     1
102
RTVSPost2010Prop33
280
     0
102
RTVSPost2010PropOp33
 70
     1
102
RTVSPost2010Prop34
280
     0
102
RTVSPost2010PropOp34
 70
     1
102
RTVSPost2010Prop35
280
     0
102
RTVSPost2010PropOp35
 70
     1
102
RTVSPost2010Prop36
280
     0
102
RTVSPost2010PropOp36
 70
     1
102
RTVSPost2010Prop37
 90
       50
102
RTVSPost2010PropOp37
 70
     1
102
RTVSPost2010Prop38
140
0.0
102
RTVSPost2010PropOp38
 70
     1
102
RTVSPost2010Prop39
140
1.0
102
RTVSPost2010PropOp39
 70
     1
102
RTVSPost2010Prop40
 90
        0
102
RTVSPost2010PropOp40
 70
     1
102
RTVSPost2010Prop41ColorIndex
 90
       18
102
RTVSPost2010Prop41ColorRGB
 90
        0
102
RTVSPost2010PropOp41
 70
     1
102
RTVSPost2010Prop42
 90
       50
102
RTVSPost2010PropOp42
 70
     1
102
RTVSPost2010Prop43
 90
        3
102
RTVSPost2010PropOp43
 70
     1
102
RTVSPost2010Prop44ColorIndex
 90
        5
102
RTVSPost2010Prop44ColorRGB
 90
      255
102
RTVSPost2010PropOp44
 70
     1
102
RTVSPost2010Prop45
280
     0
102
RTVSPost2010PropOp45
 70
     1
102
RTVSPost2010Prop46
 90
       50
102
RTVSPost2010PropOp46
 70
     1
102
RTVSPost2010Prop47
 90
       50
102
RTVSPost2010PropOp47
 70
     1
102
RTVSPost2010Prop48
 90
       50
102
RTVSPost2010PropOp48
 70
     1
102
RTVSPost2010Prop49
280
     0
102
RTVSPost2010PropOp49
 70
     1
102
RTVSPost2010Prop50
 90
       50
102
RTVSPost2010PropOp50
 70
     1
102
RTVSPost2010Prop51ColorIndex
 90
      256
102
RTVSPost2010Prop51ColorRGB
 90
-16777216
102
RTVSPost2010PropOp51
 70
     0
102
RTVSPost2010Prop52
140
1.0
102
RTVSPost2010PropOp52
 70
     0
102
RTVSPost2010Prop53
 90
        2
102
RTVSPost2010PropOp53
 70
     1
102
RTVSPost2010Prop54
  1
strokes_ogs.tif
102
RTVSPost2010PropOp54
 70
     1
102
RTVSPost2010Prop55
280
     0
102
RTVSPost2010PropOp55
 70
     1
102
RTVSPost2010Prop56
140
1.0
102
RTVSPost2010PropOp56
 70
     1
102
RTVSPost2010Prop57
140
1.0
102
RTVSPost2010PropOp57
 70
     1
102
RTVSPropertyOp0
 70
     1
102
RTVSPropertyOp1
 70
     1
102
RTVSPropertyOp2
 70
     1
102
RTVSPropertyOp3
 70
     1
102
RTVSPropertyOp4
 70
     1
102
RTVSPropertyOp5
 70
     1
102
RTVSPropertyOp6
 70
     1
102
RTVSPropertyOp7
 70
     1
102
RTVSPropertyOp8
 70
     1
102
RTVSPropertyOp9
 70
     1
102
RTVSPropertyOp10
 70
     1
102
RTVSPropertyOp11
 70
     1
102
RTVSPropertyOp12
 70
     1
102
RTVSPropertyOp13
 70
     1
102
RTVSPropertyOp14
 70
     1
102
RTVSPropertyOp15
 70
     1
102
RTVSPropertyOp16
 70
     1
102
RTVSPropertyOp17
 70
     1
102
RTVSPropertyOp18
 70
     1
102
RTVSPropertyOp19
 70
     1
102
RTVSPropertyOp20
 70
     1
102
RTVSPropertyOp21
 70
     1
102
RTVSPropertyOp22
 70
     1
102
RTVSPropertyOp23
 70
     1
102
RTVSPropertyOp24
 70
     1
102
RTVSPropertyOp25
 70
     1
102
RTVSPropertyOp26
 70
     1
102
RTVSPropertyOp27
 70
     1
102
RTVSPropertyOp28
 70
     1
102
RTVSPropertyOp29
 70
     1
102
RTVSPropertyOp30
 70
     1
102
RTVSPropertyOp31
 70
     1
102
RTVSPropertyOp32
 70
     1
102
RTVSPropertyOp33
 70
     1
102
RTVSPropertyOp34
 70
     1
102
RTVSPropertyOp35
 70
     1
102
RTVSPropertyOp36
 70
     1
102
RTVSPropertyOp37
 70
     1
102
RTVSPropertyOp38
 70
     1
102
RTVSPropertyOp39
 70
     1
102
RTVSPropertyOp40
 70
     1
102
RTVSPropertyOp41
 70
     1
102
RTVSPropertyOp42
 70
     1
102
RTVSPropertyOp43
 70
     1
102
RTVSPropertyOp44
 70
     1
102
RTVSPropertyOp45
 70
     1
102
RTVSPropertyOp46
 70
     1
102
RTVSPropertyOp47
 70
     1
102
RTVSPropertyOp48
 70
     1
102
RTVSPropertyOp49
 70
     1
102
RTVSPropertyOp50
 70
     1
102
RTVSPropertyOp51
 70
     0
102
RTVSPropertyOp52
 70
     0
102
RTVSPropertyOp53
 70
     1
102
RTVSPropertyOp54
 70
     1
102
RTVSPropertyOp55
 70
     1
102
RTVSPropertyOp56
 70
     1
102
RTVSPropertyOp57
 70
     1
102
RTVSPropertyOp58
 70
     1
102
RTVSPropertyOp59
 70
     1
102
RTVSPropertyOp60
 70
     1
102
RTVSPropertyOp61
 70
     1
102
RTVSPropertyOp62
 70
     1
  0
XRECORD
  5
3079
102
{ACAD_REACTORS
330
3078
102
}
330
3078
100
AcDbXrecord
280
     1
102
RTVSPost2010Prop28
280
     0
102
RTVSPost2010PropOp28
 70
     1
102
RTVSPost2010Prop29
280
     1
102
RTVSPost2010PropOp29
 70
     1
102
RTVSPost2010Prop30
280
     1
102
RTVSPost2010PropOp30
 70
     1
102
RTVSPost2010Prop31
280
     0
102
RTVSPost2010PropOp31
 70
     1
102
RTVSPost2010Prop32
280
     0
102
RTVSPost2010PropOp32
 70
     1
102
RTVSPost2010Prop33
280
     0
102
RTVSPost2010PropOp33
 70
     1
102
RTVSPost2010Prop34
280
     0
102
RTVSPost2010PropOp34
 70
     1
102
RTVSPost2010Prop35
280
     0
102
RTVSPost2010PropOp35
 70
     1
102
RTVSPost2010Prop36
280
     0
102
RTVSPost2010PropOp36
 70
     1
102
RTVSPost2010Prop37
 90
       50
102
RTVSPost2010PropOp37
 70
     1
102
RTVSPost2010Prop38
140
0.0
102
RTVSPost2010PropOp38
 70
     1
102
RTVSPost2010Prop39
140
1.0
102
RTVSPost2010PropOp39
 70
     1
102
RTVSPost2010Prop40
 90
        0
102
RTVSPost2010PropOp40
 70
     1
102
RTVSPost2010Prop41ColorIndex
 90
       18
102
RTVSPost2010Prop41ColorRGB
 90
        0
102
RTVSPost2010PropOp41
 70
     1
102
RTVSPost2010Prop42
 90
       50
102
RTVSPost2010PropOp42
 70
     1
102
RTVSPost2010Prop43
 90
        3
102
RTVSPost2010PropOp43
 70
     1
102
RTVSPost2010Prop44ColorIndex
 90
        5
102
RTVSPost2010Prop44ColorRGB
 90
      255
102
RTVSPost2010PropOp44
 70
     1
102
RTVSPost2010Prop45
280
     0
102
RTVSPost2010PropOp45
 70
     1
102
RTVSPost2010Prop46
 90
       50
102
RTVSPost2010PropOp46
 70
     1
102
RTVSPost2010Prop47
 90
       50
102
RTVSPost2010PropOp47
 70
     1
102
RTVSPost2010Prop48
 90
       50
102
RTVSPost2010PropOp48
 70
     1
102
RTVSPost2010Prop49
280
     0
102
RTVSPost2010PropOp49
 70
     1
102
RTVSPost2010Prop50
 90
       50
102
RTVSPost2010PropOp50
 70
     1
102
RTVSPost2010Prop51ColorIndex
 90
      256
102
RTVSPost2010Prop51ColorRGB
 90
-16777216
102
RTVSPost2010PropOp51
 70
     0
102
RTVSPost2010Prop52
140
1.0
102
RTVSPost2010PropOp52
 70
     0
102
RTVSPost2010Prop53
 90
        2
102
RTVSPost2010PropOp53
 70
     1
102
RTVSPost2010Prop54
  1
strokes_ogs.tif
102
RTVSPost2010PropOp54
 70
     1
102
RTVSPost2010Prop55
280
     0
102
RTVSPost2010PropOp55
 70
     1
102
RTVSPost2010Prop56
140
1.0
102
RTVSPost2010PropOp56
 70
     1
102
RTVSPost2010Prop57
140
1.0
102
RTVSPost2010PropOp57
 70
     1
102
RTVSPropertyOp0
 70
     1
102
RTVSPropertyOp1
 70
     1
102
RTVSPropertyOp2
 70
     1
102
RTVSPropertyOp3
 70
     1
102
RTVSPropertyOp4
 70
     1
102
RTVSPropertyOp5
 70
     1
102
RTVSPropertyOp6
 70
     1
102
RTVSPropertyOp7
 70
     1
102
RTVSPropertyOp8
 70
     1
102
RTVSPropertyOp9
 70
     1
102
RTVSPropertyOp10
 70
     1
102
RTVSPropertyOp11
 70
     1
102
RTVSPropertyOp12
 70
     1
102
RTVSPropertyOp13
 70
     1
102
RTVSPropertyOp14
 70
     1
102
RTVSPropertyOp15
 70
     1
102
RTVSPropertyOp16
 70
     1
102
RTVSPropertyOp17
 70
     1
102
RTVSPropertyOp18
 70
     1
102
RTVSPropertyOp19
 70
     1
102
RTVSPropertyOp20
 70
     1
102
RTVSPropertyOp21
 70
     1
102
RTVSPropertyOp22
 70
     1
102
RTVSPropertyOp23
 70
     1
102
RTVSPropertyOp24
 70
     1
102
RTVSPropertyOp25
 70
     1
102
RTVSPropertyOp26
 70
     1
102
RTVSPropertyOp27
 70
     1
102
RTVSPropertyOp28
 70
     1
102
RTVSPropertyOp29
 70
     1
102
RTVSPropertyOp30
 70
     1
102
RTVSPropertyOp31
 70
     1
102
RTVSPropertyOp32
 70
     1
102
RTVSPropertyOp33
 70
     1
102
RTVSPropertyOp34
 70
     1
102
RTVSPropertyOp35
 70
     1
102
RTVSPropertyOp36
 70
     1
102
RTVSPropertyOp37
 70
     1
102
RTVSPropertyOp38
 70
     1
102
RTVSPropertyOp39
 70
     1
102
RTVSPropertyOp40
 70
     1
102
RTVSPropertyOp41
 70
     1
102
RTVSPropertyOp42
 70
     1
102
RTVSPropertyOp43
 70
     1
102
RTVSPropertyOp44
 70
     1
102
RTVSPropertyOp45
 70
     1
102
RTVSPropertyOp46
 70
     1
102
RTVSPropertyOp47
 70
     1
102
RTVSPropertyOp48
 70
     1
102
RTVSPropertyOp49
 70
     1
102
RTVSPropertyOp50
 70
     1
102
RTVSPropertyOp51
 70
     0
102
RTVSPropertyOp52
 70
     0
102
RTVSPropertyOp53
 70
     1
102
RTVSPropertyOp54
 70
     1
102
RTVSPropertyOp55
 70
     1
102
RTVSPropertyOp56
 70
     1
102
RTVSPropertyOp57
 70
     1
102
RTVSPropertyOp58
 70
     1
102
RTVSPropertyOp59
 70
     1
102
RTVSPropertyOp60
 70
     1
102
RTVSPropertyOp61
 70
     1
102
RTVSPropertyOp62
 70
     1
  0
XRECORD
  5
3081
102
{ACAD_REACTORS
330
3080
102
}
330
3080
100
AcDbXrecord
280
     1
102
RTVSPost2010Prop28
280
     0
102
RTVSPost2010PropOp28
 70
     1
102
RTVSPost2010Prop29
280
     1
102
RTVSPost2010PropOp29
 70
     1
102
RTVSPost2010Prop30
280
     1
102
RTVSPost2010PropOp30
 70
     1
102
RTVSPost2010Prop31
280
     0
102
RTVSPost2010PropOp31
 70
     1
102
RTVSPost2010Prop32
280
     0
102
RTVSPost2010PropOp32
 70
     1
102
RTVSPost2010Prop33
280
     0
102
RTVSPost2010PropOp33
 70
     1
102
RTVSPost2010Prop34
280
     0
102
RTVSPost2010PropOp34
 70
     1
102
RTVSPost2010Prop35
280
     0
102
RTVSPost2010PropOp35
 70
     1
102
RTVSPost2010Prop36
280
     0
102
RTVSPost2010PropOp36
 70
     1
102
RTVSPost2010Prop37
 90
       50
102
RTVSPost2010PropOp37
 70
     1
102
RTVSPost2010Prop38
140
0.0
102
RTVSPost2010PropOp38
 70
     1
102
RTVSPost2010Prop39
140
1.0
102
RTVSPost2010PropOp39
 70
     1
102
RTVSPost2010Prop40
 90
        0
102
RTVSPost2010PropOp40
 70
     1
102
RTVSPost2010Prop41ColorIndex
 90
       18
102
RTVSPost2010Prop41ColorRGB
 90
        0
102
RTVSPost2010PropOp41
 70
     1
102
RTVSPost2010Prop42
 90
       50
102
RTVSPost2010PropOp42
 70
     1
102
RTVSPost2010Prop43
 90
        3
102
RTVSPost2010PropOp43
 70
     1
102
RTVSPost2010Prop44ColorIndex
 90
        5
102
RTVSPost2010Prop44ColorRGB
 90
      255
102
RTVSPost2010PropOp44
 70
     1
102
RTVSPost2010Prop45
280
     0
102
RTVSPost2010PropOp45
 70
     1
102
RTVSPost2010Prop46
 90
       50
102
RTVSPost2010PropOp46
 70
     1
102
RTVSPost2010Prop47
 90
       50
102
RTVSPost2010PropOp47
 70
     1
102
RTVSPost2010Prop48
 90
       50
102
RTVSPost2010PropOp48
 70
     1
102
RTVSPost2010Prop49
280
     0
102
RTVSPost2010PropOp49
 70
     1
102
RTVSPost2010Prop50
 90
       50
102
RTVSPost2010PropOp50
 70
     1
102
RTVSPost2010Prop51ColorIndex
 90
      256
102
RTVSPost2010Prop51ColorRGB
 90
-16777216
102
RTVSPost2010PropOp51
 70
     0
102
RTVSPost2010Prop52
140
1.0
102
RTVSPost2010PropOp52
 70
     0
102
RTVSPost2010Prop53
 90
        2
102
RTVSPost2010PropOp53
 70
     1
102
RTVSPost2010Prop54
  1
strokes_ogs.tif
102
RTVSPost2010PropOp54
 70
     1
102
RTVSPost2010Prop55
280
     0
102
RTVSPost2010PropOp55
 70
     1
102
RTVSPost2010Prop56
140
1.0
102
RTVSPost2010PropOp56
 70
     1
102
RTVSPost2010Prop57
140
1.0
102
RTVSPost2010PropOp57
 70
     1
102
RTVSPropertyOp0
 70
     1
102
RTVSPropertyOp1
 70
     1
102
RTVSPropertyOp2
 70
     1
102
RTVSPropertyOp3
 70
     1
102
RTVSPropertyOp4
 70
     1
102
RTVSPropertyOp5
 70
     1
102
RTVSPropertyOp6
 70
     1
102
RTVSPropertyOp7
 70
     1
102
RTVSPropertyOp8
 70
     1
102
RTVSPropertyOp9
 70
     1
102
RTVSPropertyOp10
 70
     1
102
RTVSPropertyOp11
 70
     1
102
RTVSPropertyOp12
 70
     1
102
RTVSPropertyOp13
 70
     1
102
RTVSPropertyOp14
 70
     1
102
RTVSPropertyOp15
 70
     1
102
RTVSPropertyOp16
 70
     1
102
RTVSPropertyOp17
 70
     1
102
RTVSPropertyOp18
 70
     1
102
RTVSPropertyOp19
 70
     1
102
RTVSPropertyOp20
 70
     1
102
RTVSPropertyOp21
 70
     1
102
RTVSPropertyOp22
 70
     1
102
RTVSPropertyOp23
 70
     1
102
RTVSPropertyOp24
 70
     1
102
RTVSPropertyOp25
 70
     1
102
RTVSPropertyOp26
 70
     1
102
RTVSPropertyOp27
 70
     1
102
RTVSPropertyOp28
 70
     1
102
RTVSPropertyOp29
 70
     1
102
RTVSPropertyOp30
 70
     1
102
RTVSPropertyOp31
 70
     1
102
RTVSPropertyOp32
 70
     1
102
RTVSPropertyOp33
 70
     1
102
RTVSPropertyOp34
 70
     1
102
RTVSPropertyOp35
 70
     1
102
RTVSPropertyOp36
 70
     1
102
RTVSPropertyOp37
 70
     1
102
RTVSPropertyOp38
 70
     1
102
RTVSPropertyOp39
 70
     1
102
RTVSPropertyOp40
 70
     1
102
RTVSPropertyOp41
 70
     1
102
RTVSPropertyOp42
 70
     1
102
RTVSPropertyOp43
 70
     1
102
RTVSPropertyOp44
 70
     1
102
RTVSPropertyOp45
 70
     1
102
RTVSPropertyOp46
 70
     1
102
RTVSPropertyOp47
 70
     1
102
RTVSPropertyOp48
 70
     1
102
RTVSPropertyOp49
 70
     1
102
RTVSPropertyOp50
 70
     1
102
RTVSPropertyOp51
 70
     0
102
RTVSPropertyOp52
 70
     0
102
RTVSPropertyOp53
 70
     1
102
RTVSPropertyOp54
 70
     1
102
RTVSPropertyOp55
 70
     1
102
RTVSPropertyOp56
 70
     1
102
RTVSPropertyOp57
 70
     1
102
RTVSPropertyOp58
 70
     1
102
RTVSPropertyOp59
 70
     1
102
RTVSPropertyOp60
 70
     1
102
RTVSPropertyOp61
 70
     1
102
RTVSPropertyOp62
 70
     1
  0
XRECORD
  5
3073
102
{ACAD_REACTORS
330
3072
102
}
330
3072
100
AcDbXrecord
280
     1
102
RTVSPost2010Prop28
280
     0
102
RTVSPost2010PropOp28
 70
     1
102
RTVSPost2010Prop29
280
     1
102
RTVSPost2010PropOp29
 70
     1
102
RTVSPost2010Prop30
280
     1
102
RTVSPost2010PropOp30
 70
     1
102
RTVSPost2010Prop31
280
     0
102
RTVSPost2010PropOp31
 70
     1
102
RTVSPost2010Prop32
280
     0
102
RTVSPost2010PropOp32
 70
     1
102
RTVSPost2010Prop33
280
     0
102
RTVSPost2010PropOp33
 70
     1
102
RTVSPost2010Prop34
280
     0
102
RTVSPost2010PropOp34
 70
     1
102
RTVSPost2010Prop35
280
     0
102
RTVSPost2010PropOp35
 70
     1
102
RTVSPost2010Prop36
280
     0
102
RTVSPost2010PropOp36
 70
     1
102
RTVSPost2010Prop37
 90
       50
102
RTVSPost2010PropOp37
 70
     1
102
RTVSPost2010Prop38
140
0.0
102
RTVSPost2010PropOp38
 70
     1
102
RTVSPost2010Prop39
140
1.0
102
RTVSPost2010PropOp39
 70
     1
102
RTVSPost2010Prop40
 90
        0
102
RTVSPost2010PropOp40
 70
     1
102
RTVSPost2010Prop41ColorIndex
 90
       18
102
RTVSPost2010Prop41ColorRGB
 90
        0
102
RTVSPost2010PropOp41
 70
     1
102
RTVSPost2010Prop42
 90
       50
102
RTVSPost2010PropOp42
 70
     1
102
RTVSPost2010Prop43
 90
        3
102
RTVSPost2010PropOp43
 70
     1
102
RTVSPost2010Prop44ColorIndex
 90
        5
102
RTVSPost2010Prop44ColorRGB
 90
      255
102
RTVSPost2010PropOp44
 70
     1
102
RTVSPost2010Prop45
280
     0
102
RTVSPost2010PropOp45
 70
     1
102
RTVSPost2010Prop46
 90
       50
102
RTVSPost2010PropOp46
 70
     1
102
RTVSPost2010Prop47
 90
       50
102
RTVSPost2010PropOp47
 70
     1
102
RTVSPost2010Prop48
 90
       50
102
RTVSPost2010PropOp48
 70
     1
102
RTVSPost2010Prop49
280
     0
102
RTVSPost2010PropOp49
 70
     1
102
RTVSPost2010Prop50
 90
       50
102
RTVSPost2010PropOp50
 70
     1
102
RTVSPost2010Prop51ColorIndex
 90
      256
102
RTVSPost2010Prop51ColorRGB
 90
-16777216
102
RTVSPost2010PropOp51
 70
     0
102
RTVSPost2010Prop52
140
1.0
102
RTVSPost2010PropOp52
 70
     0
102
RTVSPost2010Prop53
 90
        2
102
RTVSPost2010PropOp53
 70
     1
102
RTVSPost2010Prop54
  1
strokes_ogs.tif
102
RTVSPost2010PropOp54
 70
     1
102
RTVSPost2010Prop55
280
     0
102
RTVSPost2010PropOp55
 70
     1
102
RTVSPost2010Prop56
140
1.0
102
RTVSPost2010PropOp56
 70
     1
102
RTVSPost2010Prop57
140
1.0
102
RTVSPost2010PropOp57
 70
     1
102
RTVSPropertyOp0
 70
     1
102
RTVSPropertyOp1
 70
     1
102
RTVSPropertyOp2
 70
     1
102
RTVSPropertyOp3
 70
     1
102
RTVSPropertyOp4
 70
     1
102
RTVSPropertyOp5
 70
     1
102
RTVSPropertyOp6
 70
     1
102
RTVSPropertyOp7
 70
     1
102
RTVSPropertyOp8
 70
     1
102
RTVSPropertyOp9
 70
     1
102
RTVSPropertyOp10
 70
     1
102
RTVSPropertyOp11
 70
     1
102
RTVSPropertyOp12
 70
     1
102
RTVSPropertyOp13
 70
     1
102
RTVSPropertyOp14
 70
     1
102
RTVSPropertyOp15
 70
     1
102
RTVSPropertyOp16
 70
     1
102
RTVSPropertyOp17
 70
     1
102
RTVSPropertyOp18
 70
     1
102
RTVSPropertyOp19
 70
     1
102
RTVSPropertyOp20
 70
     1
102
RTVSPropertyOp21
 70
     1
102
RTVSPropertyOp22
 70
     1
102
RTVSPropertyOp23
 70
     1
102
RTVSPropertyOp24
 70
     1
102
RTVSPropertyOp25
 70
     1
102
RTVSPropertyOp26
 70
     1
102
RTVSPropertyOp27
 70
     1
102
RTVSPropertyOp28
 70
     1
102
RTVSPropertyOp29
 70
     1
102
RTVSPropertyOp30
 70
     1
102
RTVSPropertyOp31
 70
     1
102
RTVSPropertyOp32
 70
     1
102
RTVSPropertyOp33
 70
     1
102
RTVSPropertyOp34
 70
     1
102
RTVSPropertyOp35
 70
     1
102
RTVSPropertyOp36
 70
     1
102
RTVSPropertyOp37
 70
     1
102
RTVSPropertyOp38
 70
     1
102
RTVSPropertyOp39
 70
     1
102
RTVSPropertyOp40
 70
     1
102
RTVSPropertyOp41
 70
     1
102
RTVSPropertyOp42
 70
     1
102
RTVSPropertyOp43
 70
     1
102
RTVSPropertyOp44
 70
     1
102
RTVSPropertyOp45
 70
     1
102
RTVSPropertyOp46
 70
     1
102
RTVSPropertyOp47
 70
     1
102
RTVSPropertyOp48
 70
     1
102
RTVSPropertyOp49
 70
     1
102
RTVSPropertyOp50
 70
     1
102
RTVSPropertyOp51
 70
     0
102
RTVSPropertyOp52
 70
     0
102
RTVSPropertyOp53
 70
     1
102
RTVSPropertyOp54
 70
     1
102
RTVSPropertyOp55
 70
     1
102
RTVSPropertyOp56
 70
     1
102
RTVSPropertyOp57
 70
     1
102
RTVSPropertyOp58
 70
     1
102
RTVSPropertyOp59
 70
     1
102
RTVSPropertyOp60
 70
     1
102
RTVSPropertyOp61
 70
     1
102
RTVSPropertyOp62
 70
     1
  0
XRECORD
  5
3077
102
{ACAD_REACTORS
330
3076
102
}
330
3076
100
AcDbXrecord
280
     1
102
RTVSPost2010Prop28
280
     0
102
RTVSPost2010PropOp28
 70
     1
102
RTVSPost2010Prop29
280
     1
102
RTVSPost2010PropOp29
 70
     1
102
RTVSPost2010Prop30
280
     1
102
RTVSPost2010PropOp30
 70
     1
102
RTVSPost2010Prop31
280
     0
102
RTVSPost2010PropOp31
 70
     1
102
RTVSPost2010Prop32
280
     0
102
RTVSPost2010PropOp32
 70
     1
102
RTVSPost2010Prop33
280
     0
102
RTVSPost2010PropOp33
 70
     1
102
RTVSPost2010Prop34
280
     0
102
RTVSPost2010PropOp34
 70
     1
102
RTVSPost2010Prop35
280
     0
102
RTVSPost2010PropOp35
 70
     1
102
RTVSPost2010Prop36
280
     0
102
RTVSPost2010PropOp36
 70
     1
102
RTVSPost2010Prop37
 90
       50
102
RTVSPost2010PropOp37
 70
     1
102
RTVSPost2010Prop38
140
0.0
102
RTVSPost2010PropOp38
 70
     1
102
RTVSPost2010Prop39
140
1.0
102
RTVSPost2010PropOp39
 70
     1
102
RTVSPost2010Prop40
 90
        0
102
RTVSPost2010PropOp40
 70
     1
102
RTVSPost2010Prop41ColorIndex
 90
       18
102
RTVSPost2010Prop41ColorRGB
 90
        0
102
RTVSPost2010PropOp41
 70
     1
102
RTVSPost2010Prop42
 90
       50
102
RTVSPost2010PropOp42
 70
     1
102
RTVSPost2010Prop43
 90
        3
102
RTVSPost2010PropOp43
 70
     1
102
RTVSPost2010Prop44ColorIndex
 90
        5
102
RTVSPost2010Prop44ColorRGB
 90
      255
102
RTVSPost2010PropOp44
 70
     1
102
RTVSPost2010Prop45
280
     0
102
RTVSPost2010PropOp45
 70
     1
102
RTVSPost2010Prop46
 90
       50
102
RTVSPost2010PropOp46
 70
     1
102
RTVSPost2010Prop47
 90
       50
102
RTVSPost2010PropOp47
 70
     1
102
RTVSPost2010Prop48
 90
       50
102
RTVSPost2010PropOp48
 70
     1
102
RTVSPost2010Prop49
280
     0
102
RTVSPost2010PropOp49
 70
     1
102
RTVSPost2010Prop50
 90
       50
102
RTVSPost2010PropOp50
 70
     1
102
RTVSPost2010Prop51ColorIndex
 90
      256
102
RTVSPost2010Prop51ColorRGB
 90
-16777216
102
RTVSPost2010PropOp51
 70
     0
102
RTVSPost2010Prop52
140
1.0
102
RTVSPost2010PropOp52
 70
     0
102
RTVSPost2010Prop53
 90
        2
102
RTVSPost2010PropOp53
 70
     1
102
RTVSPost2010Prop54
  1
strokes_ogs.tif
102
RTVSPost2010PropOp54
 70
     1
102
RTVSPost2010Prop55
280
     0
102
RTVSPost2010PropOp55
 70
     1
102
RTVSPost2010Prop56
140
1.0
102
RTVSPost2010PropOp56
 70
     1
102
RTVSPost2010Prop57
140
1.0
102
RTVSPost2010PropOp57
 70
     1
102
RTVSPropertyOp0
 70
     1
102
RTVSPropertyOp1
 70
     1
102
RTVSPropertyOp2
 70
     1
102
RTVSPropertyOp3
 70
     1
102
RTVSPropertyOp4
 70
     1
102
RTVSPropertyOp5
 70
     1
102
RTVSPropertyOp6
 70
     1
102
RTVSPropertyOp7
 70
     1
102
RTVSPropertyOp8
 70
     1
102
RTVSPropertyOp9
 70
     1
102
RTVSPropertyOp10
 70
     1
102
RTVSPropertyOp11
 70
     1
102
RTVSPropertyOp12
 70
     1
102
RTVSPropertyOp13
 70
     1
102
RTVSPropertyOp14
 70
     1
102
RTVSPropertyOp15
 70
     1
102
RTVSPropertyOp16
 70
     1
102
RTVSPropertyOp17
 70
     1
102
RTVSPropertyOp18
 70
     1
102
RTVSPropertyOp19
 70
     1
102
RTVSPropertyOp20
 70
     1
102
RTVSPropertyOp21
 70
     1
102
RTVSPropertyOp22
 70
     1
102
RTVSPropertyOp23
 70
     1
102
RTVSPropertyOp24
 70
     1
102
RTVSPropertyOp25
 70
     1
102
RTVSPropertyOp26
 70
     1
102
RTVSPropertyOp27
 70
     1
102
RTVSPropertyOp28
 70
     1
102
RTVSPropertyOp29
 70
     1
102
RTVSPropertyOp30
 70
     1
102
RTVSPropertyOp31
 70
     1
102
RTVSPropertyOp32
 70
     1
102
RTVSPropertyOp33
 70
     1
102
RTVSPropertyOp34
 70
     1
102
RTVSPropertyOp35
 70
     1
102
RTVSPropertyOp36
 70
     1
102
RTVSPropertyOp37
 70
     1
102
RTVSPropertyOp38
 70
     1
102
RTVSPropertyOp39
 70
     1
102
RTVSPropertyOp40
 70
     1
102
RTVSPropertyOp41
 70
     1
102
RTVSPropertyOp42
 70
     1
102
RTVSPropertyOp43
 70
     1
102
RTVSPropertyOp44
 70
     1
102
RTVSPropertyOp45
 70
     1
102
RTVSPropertyOp46
 70
     1
102
RTVSPropertyOp47
 70
     1
102
RTVSPropertyOp48
 70
     1
102
RTVSPropertyOp49
 70
     1
102
RTVSPropertyOp50
 70
     1
102
RTVSPropertyOp51
 70
     0
102
RTVSPropertyOp52
 70
     0
102
RTVSPropertyOp53
 70
     1
102
RTVSPropertyOp54
 70
     1
102
RTVSPropertyOp55
 70
     1
102
RTVSPropertyOp56
 70
     1
102
RTVSPropertyOp57
 70
     1
102
RTVSPropertyOp58
 70
     1
102
RTVSPropertyOp59
 70
     1
102
RTVSPropertyOp60
 70
     1
102
RTVSPropertyOp61
 70
     1
102
RTVSPropertyOp62
 70
     1
  0
XRECORD
  5
3091
102
{ACAD_REACTORS
330
3090
102
}
330
3090
100
AcDbXrecord
280
     1
102
RTVSPost2010Prop28
280
     0
102
RTVSPost2010PropOp28
 70
     0
102
RTVSPost2010Prop29
280
     1
102
RTVSPost2010PropOp29
 70
     0
102
RTVSPost2010Prop30
280
     1
102
RTVSPost2010PropOp30
 70
     0
102
RTVSPost2010Prop31
280
     0
102
RTVSPost2010PropOp31
 70
     0
102
RTVSPost2010Prop32
280
     0
102
RTVSPost2010PropOp32
 70
     0
102
RTVSPost2010Prop33
280
     0
102
RTVSPost2010PropOp33
 70
     0
102
RTVSPost2010Prop34
280
     0
102
RTVSPost2010PropOp34
 70
     0
102
RTVSPost2010Prop35
280
     0
102
RTVSPost2010PropOp35
 70
     0
102
RTVSPost2010Prop36
280
     0
102
RTVSPost2010PropOp36
 70
     0
102
RTVSPost2010Prop37
 90
       50
102
RTVSPost2010PropOp37
 70
     0
102
RTVSPost2010Prop38
140
0.0
102
RTVSPost2010PropOp38
 70
     0
102
RTVSPost2010Prop39
140
1.0
102
RTVSPost2010PropOp39
 70
     0
102
RTVSPost2010Prop40
 90
        0
102
RTVSPost2010PropOp40
 70
     0
102
RTVSPost2010Prop41ColorIndex
 90
       18
102
RTVSPost2010Prop41ColorRGB
 90
        0
102
RTVSPost2010PropOp41
 70
     0
102
RTVSPost2010Prop42
 90
       50
102
RTVSPost2010PropOp42
 70
     0
102
RTVSPost2010Prop43
 90
        3
102
RTVSPost2010PropOp43
 70
     0
102
RTVSPost2010Prop44ColorIndex
 90
        5
102
RTVSPost2010Prop44ColorRGB
 90
      255
102
RTVSPost2010PropOp44
 70
     0
102
RTVSPost2010Prop45
280
     0
102
RTVSPost2010PropOp45
 70
     0
102
RTVSPost2010Prop46
 90
       50
102
RTVSPost2010PropOp46
 70
     0
102
RTVSPost2010Prop47
 90
       50
102
RTVSPost2010PropOp47
 70
     0
102
RTVSPost2010Prop48
 90
       50
102
RTVSPost2010PropOp48
 70
     0
102
RTVSPost2010Prop49
280
     0
102
RTVSPost2010PropOp49
 70
     0
102
RTVSPost2010Prop50
 90
       50
102
RTVSPost2010PropOp50
 70
     0
102
RTVSPost2010Prop51ColorIndex
 90
      256
102
RTVSPost2010Prop51ColorRGB
 90
-16777216
102
RTVSPost2010PropOp51
 70
     0
102
RTVSPost2010Prop52
140
1.0
102
RTVSPost2010PropOp52
 70
     0
102
RTVSPost2010Prop53
 90
        2
102
RTVSPost2010PropOp53
 70
     0
102
RTVSPost2010Prop54
  1
strokes_ogs.tif
102
RTVSPost2010PropOp54
 70
     0
102
RTVSPost2010Prop55
280
     0
102
RTVSPost2010PropOp55
 70
     0
102
RTVSPost2010Prop56
140
1.0
102
RTVSPost2010PropOp56
 70
     0
102
RTVSPost2010Prop57
140
1.0
102
RTVSPost2010PropOp57
 70
     0
102
RTVSPropertyOp0
 70
     0
102
RTVSPropertyOp1
 70
     0
102
RTVSPropertyOp2
 70
     0
102
RTVSPropertyOp3
 70
     0
102
RTVSPropertyOp4
 70
     0
102
RTVSPropertyOp5
 70
     0
102
RTVSPropertyOp6
 70
     0
102
RTVSPropertyOp7
 70
     0
102
RTVSPropertyOp8
 70
     0
102
RTVSPropertyOp9
 70
     0
102
RTVSPropertyOp10
 70
     0
102
RTVSPropertyOp11
 70
     0
102
RTVSPropertyOp12
 70
     0
102
RTVSPropertyOp13
 70
     0
102
RTVSPropertyOp14
 70
     2
102
RTVSPropertyOp15
 70
     0
102
RTVSPropertyOp16
 70
     0
102
RTVSPropertyOp17
 70
     0
102
RTVSPropertyOp18
 70
     0
102
RTVSPropertyOp19
 70
     0
102
RTVSPropertyOp20
 70
     0
102
RTVSPropertyOp21
 70
     0
102
RTVSPropertyOp22
 70
     0
102
RTVSPropertyOp23
 70
     0
102
RTVSPropertyOp24
 70
     0
102
RTVSPropertyOp25
 70
     0
102
RTVSPropertyOp26
 70
     0
102
RTVSPropertyOp27
 70
     0
102
RTVSPropertyOp28
 70
     0
102
RTVSPropertyOp29
 70
     0
102
RTVSPropertyOp30
 70
     0
102
RTVSPropertyOp31
 70
     0
102
RTVSPropertyOp32
 70
     0
102
RTVSPropertyOp33
 70
     0
102
RTVSPropertyOp34
 70
     0
102
RTVSPropertyOp35
 70
     0
102
RTVSPropertyOp36
 70
     0
102
RTVSPropertyOp37
 70
     0
102
RTVSPropertyOp38
 70
     0
102
RTVSPropertyOp39
 70
     0
102
RTVSPropertyOp40
 70
     0
102
RTVSPropertyOp41
 70
     0
102
RTVSPropertyOp42
 70
     0
102
RTVSPropertyOp43
 70
     0
102
RTVSPropertyOp44
 70
     0
102
RTVSPropertyOp45
 70
     0
102
RTVSPropertyOp46
 70
     0
102
RTVSPropertyOp47
 70
     0
102
RTVSPropertyOp48
 70
     0
102
RTVSPropertyOp49
 70
     0
102
RTVSPropertyOp50
 70
     0
102
RTVSPropertyOp51
 70
     0
102
RTVSPropertyOp52
 70
     0
102
RTVSPropertyOp53
 70
     0
102
RTVSPropertyOp54
 70
     0
102
RTVSPropertyOp55
 70
     0
102
RTVSPropertyOp56
 70
     0
102
RTVSPropertyOp57
 70
     0
102
RTVSPropertyOp58
 70
     1
102
RTVSPropertyOp59
 70
     1
102
RTVSPropertyOp60
 70
     1
102
RTVSPropertyOp61
 70
     1
102
RTVSPropertyOp62
 70
     1
  0
XRECORD
  5
307F
102
{ACAD_REACTORS
330
307E
102
}
330
307E
100
AcDbXrecord
280
     1
102
RTVSPost2010Prop28
280
     0
102
RTVSPost2010PropOp28
 70
     1
102
RTVSPost2010Prop29
280
     1
102
RTVSPost2010PropOp29
 70
     1
102
RTVSPost2010Prop30
280
     1
102
RTVSPost2010PropOp30
 70
     1
102
RTVSPost2010Prop31
280
     0
102
RTVSPost2010PropOp31
 70
     1
102
RTVSPost2010Prop32
280
     0
102
RTVSPost2010PropOp32
 70
     1
102
RTVSPost2010Prop33
280
     0
102
RTVSPost2010PropOp33
 70
     1
102
RTVSPost2010Prop34
280
     0
102
RTVSPost2010PropOp34
 70
     1
102
RTVSPost2010Prop35
280
     0
102
RTVSPost2010PropOp35
 70
     1
102
RTVSPost2010Prop36
280
     0
102
RTVSPost2010PropOp36
 70
     1
102
RTVSPost2010Prop37
 90
       50
102
RTVSPost2010PropOp37
 70
     1
102
RTVSPost2010Prop38
140
0.0
102
RTVSPost2010PropOp38
 70
     1
102
RTVSPost2010Prop39
140
1.0
102
RTVSPost2010PropOp39
 70
     1
102
RTVSPost2010Prop40
 90
        0
102
RTVSPost2010PropOp40
 70
     1
102
RTVSPost2010Prop41ColorIndex
 90
       18
102
RTVSPost2010Prop41ColorRGB
 90
        0
102
RTVSPost2010PropOp41
 70
     1
102
RTVSPost2010Prop42
 90
       50
102
RTVSPost2010PropOp42
 70
     1
102
RTVSPost2010Prop43
 90
        3
102
RTVSPost2010PropOp43
 70
     1
102
RTVSPost2010Prop44ColorIndex
 90
        5
102
RTVSPost2010Prop44ColorRGB
 90
      255
102
RTVSPost2010PropOp44
 70
     1
102
RTVSPost2010Prop45
280
     0
102
RTVSPost2010PropOp45
 70
     1
102
RTVSPost2010Prop46
 90
       50
102
RTVSPost2010PropOp46
 70
     1
102
RTVSPost2010Prop47
 90
       50
102
RTVSPost2010PropOp47
 70
     1
102
RTVSPost2010Prop48
 90
       50
102
RTVSPost2010PropOp48
 70
     1
102
RTVSPost2010Prop49
280
     0
102
RTVSPost2010PropOp49
 70
     1
102
RTVSPost2010Prop50
 90
       50
102
RTVSPost2010PropOp50
 70
     1
102
RTVSPost2010Prop51ColorIndex
 90
      256
102
RTVSPost2010Prop51ColorRGB
 90
-16777216
102
RTVSPost2010PropOp51
 70
     0
102
RTVSPost2010Prop52
140
1.0
102
RTVSPost2010PropOp52
 70
     0
102
RTVSPost2010Prop53
 90
        2
102
RTVSPost2010PropOp53
 70
     1
102
RTVSPost2010Prop54
  1
strokes_ogs.tif
102
RTVSPost2010PropOp54
 70
     1
102
RTVSPost2010Prop55
280
     0
102
RTVSPost2010PropOp55
 70
     1
102
RTVSPost2010Prop56
140
1.0
102
RTVSPost2010PropOp56
 70
     1
102
RTVSPost2010Prop57
140
1.0
102
RTVSPost2010PropOp57
 70
     1
102
RTVSPropertyOp0
 70
     1
102
RTVSPropertyOp1
 70
     1
102
RTVSPropertyOp2
 70
     1
102
RTVSPropertyOp3
 70
     1
102
RTVSPropertyOp4
 70
     1
102
RTVSPropertyOp5
 70
     1
102
RTVSPropertyOp6
 70
     1
102
RTVSPropertyOp7
 70
     1
102
RTVSPropertyOp8
 70
     1
102
RTVSPropertyOp9
 70
     1
102
RTVSPropertyOp10
 70
     1
102
RTVSPropertyOp11
 70
     1
102
RTVSPropertyOp12
 70
     1
102
RTVSPropertyOp13
 70
     1
102
RTVSPropertyOp14
 70
     1
102
RTVSPropertyOp15
 70
     1
102
RTVSPropertyOp16
 70
     1
102
RTVSPropertyOp17
 70
     1
102
RTVSPropertyOp18
 70
     1
102
RTVSPropertyOp19
 70
     1
102
RTVSPropertyOp20
 70
     1
102
RTVSPropertyOp21
 70
     1
102
RTVSPropertyOp22
 70
     1
102
RTVSPropertyOp23
 70
     1
102
RTVSPropertyOp24
 70
     1
102
RTVSPropertyOp25
 70
     1
102
RTVSPropertyOp26
 70
     1
102
RTVSPropertyOp27
 70
     1
102
RTVSPropertyOp28
 70
     1
102
RTVSPropertyOp29
 70
     1
102
RTVSPropertyOp30
 70
     1
102
RTVSPropertyOp31
 70
     1
102
RTVSPropertyOp32
 70
     1
102
RTVSPropertyOp33
 70
     1
102
RTVSPropertyOp34
 70
     1
102
RTVSPropertyOp35
 70
     1
102
RTVSPropertyOp36
 70
     1
102
RTVSPropertyOp37
 70
     1
102
RTVSPropertyOp38
 70
     1
102
RTVSPropertyOp39
 70
     1
102
RTVSPropertyOp40
 70
     1
102
RTVSPropertyOp41
 70
     1
102
RTVSPropertyOp42
 70
     1
102
RTVSPropertyOp43
 70
     1
102
RTVSPropertyOp44
 70
     1
102
RTVSPropertyOp45
 70
     1
102
RTVSPropertyOp46
 70
     1
102
RTVSPropertyOp47
 70
     1
102
RTVSPropertyOp48
 70
     1
102
RTVSPropertyOp49
 70
     1
102
RTVSPropertyOp50
 70
     1
102
RTVSPropertyOp51
 70
     0
102
RTVSPropertyOp52
 70
     0
102
RTVSPropertyOp53
 70
     1
102
RTVSPropertyOp54
 70
     1
102
RTVSPropertyOp55
 70
     1
102
RTVSPropertyOp56
 70
     1
102
RTVSPropertyOp57
 70
     1
102
RTVSPropertyOp58
 70
     1
102
RTVSPropertyOp59
 70
     1
102
RTVSPropertyOp60
 70
     1
102
RTVSPropertyOp61
 70
     1
102
RTVSPropertyOp62
 70
     1
  0
XRECORD
  5
3063
102
{ACAD_REACTORS
330
3062
102
}
330
3062
100
AcDbXrecord
280
     1
102
RTVSPost2010Prop28
280
     0
102
RTVSPost2010PropOp28
 70
     1
102
RTVSPost2010Prop29
280
     1
102
RTVSPost2010PropOp29
 70
     1
102
RTVSPost2010Prop30
280
     1
102
RTVSPost2010PropOp30
 70
     1
102
RTVSPost2010Prop31
280
     0
102
RTVSPost2010PropOp31
 70
     1
102
RTVSPost2010Prop32
280
     0
102
RTVSPost2010PropOp32
 70
     1
102
RTVSPost2010Prop33
280
     0
102
RTVSPost2010PropOp33
 70
     1
102
RTVSPost2010Prop34
280
     0
102
RTVSPost2010PropOp34
 70
     1
102
RTVSPost2010Prop35
280
     0
102
RTVSPost2010PropOp35
 70
     1
102
RTVSPost2010Prop36
280
     0
102
RTVSPost2010PropOp36
 70
     1
102
RTVSPost2010Prop37
 90
       50
102
RTVSPost2010PropOp37
 70
     1
102
RTVSPost2010Prop38
140
0.0
102
RTVSPost2010PropOp38
 70
     1
102
RTVSPost2010Prop39
140
1.0
102
RTVSPost2010PropOp39
 70
     1
102
RTVSPost2010Prop40
 90
        0
102
RTVSPost2010PropOp40
 70
     1
102
RTVSPost2010Prop41ColorIndex
 90
       18
102
RTVSPost2010Prop41ColorRGB
 90
        0
102
RTVSPost2010PropOp41
 70
     1
102
RTVSPost2010Prop42
 90
       50
102
RTVSPost2010PropOp42
 70
     1
102
RTVSPost2010Prop43
 90
        3
102
RTVSPost2010PropOp43
 70
     1
102
RTVSPost2010Prop44ColorIndex
 90
        5
102
RTVSPost2010Prop44ColorRGB
 90
      255
102
RTVSPost2010PropOp44
 70
     1
102
RTVSPost2010Prop45
280
     0
102
RTVSPost2010PropOp45
 70
     1
102
RTVSPost2010Prop46
 90
       50
102
RTVSPost2010PropOp46
 70
     1
102
RTVSPost2010Prop47
 90
       50
102
RTVSPost2010PropOp47
 70
     1
102
RTVSPost2010Prop48
 90
       50
102
RTVSPost2010PropOp48
 70
     1
102
RTVSPost2010Prop49
280
     0
102
RTVSPost2010PropOp49
 70
     1
102
RTVSPost2010Prop50
 90
       50
102
RTVSPost2010PropOp50
 70
     1
102
RTVSPost2010Prop51ColorIndex
 90
      256
102
RTVSPost2010Prop51ColorRGB
 90
-16777216
102
RTVSPost2010PropOp51
 70
     0
102
RTVSPost2010Prop52
140
1.0
102
RTVSPost2010PropOp52
 70
     0
102
RTVSPost2010Prop53
 90
        2
102
RTVSPost2010PropOp53
 70
     1
102
RTVSPost2010Prop54
  1
strokes_ogs.tif
102
RTVSPost2010PropOp54
 70
     1
102
RTVSPost2010Prop55
280
     0
102
RTVSPost2010PropOp55
 70
     1
102
RTVSPost2010Prop56
140
1.0
102
RTVSPost2010PropOp56
 70
     1
102
RTVSPost2010Prop57
140
1.0
102
RTVSPost2010PropOp57
 70
     1
102
RTVSPropertyOp0
 70
     1
102
RTVSPropertyOp1
 70
     1
102
RTVSPropertyOp2
 70
     1
102
RTVSPropertyOp3
 70
     1
102
RTVSPropertyOp4
 70
     1
102
RTVSPropertyOp5
 70
     1
102
RTVSPropertyOp6
 70
     1
102
RTVSPropertyOp7
 70
     1
102
RTVSPropertyOp8
 70
     1
102
RTVSPropertyOp9
 70
     1
102
RTVSPropertyOp10
 70
     1
102
RTVSPropertyOp11
 70
     1
102
RTVSPropertyOp12
 70
     1
102
RTVSPropertyOp13
 70
     1
102
RTVSPropertyOp14
 70
     1
102
RTVSPropertyOp15
 70
     1
102
RTVSPropertyOp16
 70
     1
102
RTVSPropertyOp17
 70
     1
102
RTVSPropertyOp18
 70
     1
102
RTVSPropertyOp19
 70
     1
102
RTVSPropertyOp20
 70
     1
102
RTVSPropertyOp21
 70
     1
102
RTVSPropertyOp22
 70
     1
102
RTVSPropertyOp23
 70
     1
102
RTVSPropertyOp24
 70
     1
102
RTVSPropertyOp25
 70
     1
102
RTVSPropertyOp26
 70
     1
102
RTVSPropertyOp27
 70
     1
102
RTVSPropertyOp28
 70
     1
102
RTVSPropertyOp29
 70
     1
102
RTVSPropertyOp30
 70
     1
102
RTVSPropertyOp31
 70
     1
102
RTVSPropertyOp32
 70
     1
102
RTVSPropertyOp33
 70
     1
102
RTVSPropertyOp34
 70
     1
102
RTVSPropertyOp35
 70
     1
102
RTVSPropertyOp36
 70
     1
102
RTVSPropertyOp37
 70
     1
102
RTVSPropertyOp38
 70
     1
102
RTVSPropertyOp39
 70
     1
102
RTVSPropertyOp40
 70
     1
102
RTVSPropertyOp41
 70
     1
102
RTVSPropertyOp42
 70
     1
102
RTVSPropertyOp43
 70
     1
102
RTVSPropertyOp44
 70
     1
102
RTVSPropertyOp45
 70
     1
102
RTVSPropertyOp46
 70
     1
102
RTVSPropertyOp47
 70
     1
102
RTVSPropertyOp48
 70
     1
102
RTVSPropertyOp49
 70
     1
102
RTVSPropertyOp50
 70
     1
102
RTVSPropertyOp51
 70
     0
102
RTVSPropertyOp52
 70
     0
102
RTVSPropertyOp53
 70
     1
102
RTVSPropertyOp54
 70
     1
102
RTVSPropertyOp55
 70
     1
102
RTVSPropertyOp56
 70
     1
102
RTVSPropertyOp57
 70
     1
102
RTVSPropertyOp58
 70
     1
102
RTVSPropertyOp59
 70
     1
102
RTVSPropertyOp60
 70
     1
102
RTVSPropertyOp61
 70
     1
102
RTVSPropertyOp62
 70
     1
  0
XRECORD
  5
3065
102
{ACAD_REACTORS
330
3064
102
}
330
3064
100
AcDbXrecord
280
     1
102
RTVSPost2010Prop28
280
     0
102
RTVSPost2010PropOp28
 70
     1
102
RTVSPost2010Prop29
280
     1
102
RTVSPost2010PropOp29
 70
     1
102
RTVSPost2010Prop30
280
     1
102
RTVSPost2010PropOp30
 70
     1
102
RTVSPost2010Prop31
280
     0
102
RTVSPost2010PropOp31
 70
     1
102
RTVSPost2010Prop32
280
     0
102
RTVSPost2010PropOp32
 70
     1
102
RTVSPost2010Prop33
280
     0
102
RTVSPost2010PropOp33
 70
     1
102
RTVSPost2010Prop34
280
     0
102
RTVSPost2010PropOp34
 70
     1
102
RTVSPost2010Prop35
280
     0
102
RTVSPost2010PropOp35
 70
     1
102
RTVSPost2010Prop36
280
     0
102
RTVSPost2010PropOp36
 70
     1
102
RTVSPost2010Prop37
 90
       50
102
RTVSPost2010PropOp37
 70
     1
102
RTVSPost2010Prop38
140
0.0
102
RTVSPost2010PropOp38
 70
     1
102
RTVSPost2010Prop39
140
1.0
102
RTVSPost2010PropOp39
 70
     1
102
RTVSPost2010Prop40
 90
        0
102
RTVSPost2010PropOp40
 70
     1
102
RTVSPost2010Prop41ColorIndex
 90
       18
102
RTVSPost2010Prop41ColorRGB
 90
        0
102
RTVSPost2010PropOp41
 70
     1
102
RTVSPost2010Prop42
 90
       50
102
RTVSPost2010PropOp42
 70
     1
102
RTVSPost2010Prop43
 90
        3
102
RTVSPost2010PropOp43
 70
     1
102
RTVSPost2010Prop44ColorIndex
 90
        5
102
RTVSPost2010Prop44ColorRGB
 90
      255
102
RTVSPost2010PropOp44
 70
     1
102
RTVSPost2010Prop45
280
     0
102
RTVSPost2010PropOp45
 70
     1
102
RTVSPost2010Prop46
 90
       50
102
RTVSPost2010PropOp46
 70
     1
102
RTVSPost2010Prop47
 90
       50
102
RTVSPost2010PropOp47
 70
     1
102
RTVSPost2010Prop48
 90
       50
102
RTVSPost2010PropOp48
 70
     1
102
RTVSPost2010Prop49
280
     0
102
RTVSPost2010PropOp49
 70
     1
102
RTVSPost2010Prop50
 90
       50
102
RTVSPost2010PropOp50
 70
     1
102
RTVSPost2010Prop51ColorIndex
 90
      256
102
RTVSPost2010Prop51ColorRGB
 90
-16777216
102
RTVSPost2010PropOp51
 70
     0
102
RTVSPost2010Prop52
140
1.0
102
RTVSPost2010PropOp52
 70
     0
102
RTVSPost2010Prop53
 90
        2
102
RTVSPost2010PropOp53
 70
     1
102
RTVSPost2010Prop54
  1
strokes_ogs.tif
102
RTVSPost2010PropOp54
 70
     1
102
RTVSPost2010Prop55
280
     0
102
RTVSPost2010PropOp55
 70
     1
102
RTVSPost2010Prop56
140
1.0
102
RTVSPost2010PropOp56
 70
     1
102
RTVSPost2010Prop57
140
1.0
102
RTVSPost2010PropOp57
 70
     1
102
RTVSPropertyOp0
 70
     1
102
RTVSPropertyOp1
 70
     1
102
RTVSPropertyOp2
 70
     1
102
RTVSPropertyOp3
 70
     1
102
RTVSPropertyOp4
 70
     1
102
RTVSPropertyOp5
 70
     1
102
RTVSPropertyOp6
 70
     1
102
RTVSPropertyOp7
 70
     1
102
RTVSPropertyOp8
 70
     1
102
RTVSPropertyOp9
 70
     1
102
RTVSPropertyOp10
 70
     1
102
RTVSPropertyOp11
 70
     1
102
RTVSPropertyOp12
 70
     1
102
RTVSPropertyOp13
 70
     1
102
RTVSPropertyOp14
 70
     1
102
RTVSPropertyOp15
 70
     1
102
RTVSPropertyOp16
 70
     1
102
RTVSPropertyOp17
 70
     1
102
RTVSPropertyOp18
 70
     1
102
RTVSPropertyOp19
 70
     1
102
RTVSPropertyOp20
 70
     1
102
RTVSPropertyOp21
 70
     1
102
RTVSPropertyOp22
 70
     1
102
RTVSPropertyOp23
 70
     1
102
RTVSPropertyOp24
 70
     1
102
RTVSPropertyOp25
 70
     1
102
RTVSPropertyOp26
 70
     1
102
RTVSPropertyOp27
 70
     1
102
RTVSPropertyOp28
 70
     1
102
RTVSPropertyOp29
 70
     1
102
RTVSPropertyOp30
 70
     1
102
RTVSPropertyOp31
 70
     1
102
RTVSPropertyOp32
 70
     1
102
RTVSPropertyOp33
 70
     1
102
RTVSPropertyOp34
 70
     1
102
RTVSPropertyOp35
 70
     1
102
RTVSPropertyOp36
 70
     1
102
RTVSPropertyOp37
 70
     1
102
RTVSPropertyOp38
 70
     1
102
RTVSPropertyOp39
 70
     1
102
RTVSPropertyOp40
 70
     1
102
RTVSPropertyOp41
 70
     1
102
RTVSPropertyOp42
 70
     1
102
RTVSPropertyOp43
 70
     1
102
RTVSPropertyOp44
 70
     1
102
RTVSPropertyOp45
 70
     1
102
RTVSPropertyOp46
 70
     1
102
RTVSPropertyOp47
 70
     1
102
RTVSPropertyOp48
 70
     1
102
RTVSPropertyOp49
 70
     1
102
RTVSPropertyOp50
 70
     1
102
RTVSPropertyOp51
 70
     0
102
RTVSPropertyOp52
 70
     0
102
RTVSPropertyOp53
 70
     1
102
RTVSPropertyOp54
 70
     1
102
RTVSPropertyOp55
 70
     1
102
RTVSPropertyOp56
 70
     1
102
RTVSPropertyOp57
 70
     1
102
RTVSPropertyOp58
 70
     1
102
RTVSPropertyOp59
 70
     1
102
RTVSPropertyOp60
 70
     1
102
RTVSPropertyOp61
 70
     1
102
RTVSPropertyOp62
 70
     1
  0
XRECORD
  5
3067
102
{ACAD_REACTORS
330
3066
102
}
330
3066
100
AcDbXrecord
280
     1
102
RTVSPost2010Prop28
280
     0
102
RTVSPost2010PropOp28
 70
     1
102
RTVSPost2010Prop29
280
     1
102
RTVSPost2010PropOp29
 70
     1
102
RTVSPost2010Prop30
280
     1
102
RTVSPost2010PropOp30
 70
     1
102
RTVSPost2010Prop31
280
     0
102
RTVSPost2010PropOp31
 70
     1
102
RTVSPost2010Prop32
280
     0
102
RTVSPost2010PropOp32
 70
     1
102
RTVSPost2010Prop33
280
     0
102
RTVSPost2010PropOp33
 70
     1
102
RTVSPost2010Prop34
280
     0
102
RTVSPost2010PropOp34
 70
     1
102
RTVSPost2010Prop35
280
     0
102
RTVSPost2010PropOp35
 70
     1
102
RTVSPost2010Prop36
280
     0
102
RTVSPost2010PropOp36
 70
     1
102
RTVSPost2010Prop37
 90
       50
102
RTVSPost2010PropOp37
 70
     1
102
RTVSPost2010Prop38
140
0.0
102
RTVSPost2010PropOp38
 70
     1
102
RTVSPost2010Prop39
140
1.0
102
RTVSPost2010PropOp39
 70
     1
102
RTVSPost2010Prop40
 90
        0
102
RTVSPost2010PropOp40
 70
     1
102
RTVSPost2010Prop41ColorIndex
 90
       18
102
RTVSPost2010Prop41ColorRGB
 90
        0
102
RTVSPost2010PropOp41
 70
     1
102
RTVSPost2010Prop42
 90
       50
102
RTVSPost2010PropOp42
 70
     1
102
RTVSPost2010Prop43
 90
        3
102
RTVSPost2010PropOp43
 70
     1
102
RTVSPost2010Prop44ColorIndex
 90
        5
102
RTVSPost2010Prop44ColorRGB
 90
      255
102
RTVSPost2010PropOp44
 70
     1
102
RTVSPost2010Prop45
280
     0
102
RTVSPost2010PropOp45
 70
     1
102
RTVSPost2010Prop46
 90
       50
102
RTVSPost2010PropOp46
 70
     1
102
RTVSPost2010Prop47
 90
       50
102
RTVSPost2010PropOp47
 70
     1
102
RTVSPost2010Prop48
 90
       50
102
RTVSPost2010PropOp48
 70
     1
102
RTVSPost2010Prop49
280
     0
102
RTVSPost2010PropOp49
 70
     1
102
RTVSPost2010Prop50
 90
       50
102
RTVSPost2010PropOp50
 70
     1
102
RTVSPost2010Prop51ColorIndex
 90
      256
102
RTVSPost2010Prop51ColorRGB
 90
-16777216
102
RTVSPost2010PropOp51
 70
     0
102
RTVSPost2010Prop52
140
1.0
102
RTVSPost2010PropOp52
 70
     0
102
RTVSPost2010Prop53
 90
        2
102
RTVSPost2010PropOp53
 70
     1
102
RTVSPost2010Prop54
  1
strokes_ogs.tif
102
RTVSPost2010PropOp54
 70
     1
102
RTVSPost2010Prop55
280
     0
102
RTVSPost2010PropOp55
 70
     1
102
RTVSPost2010Prop56
140
1.0
102
RTVSPost2010PropOp56
 70
     1
102
RTVSPost2010Prop57
140
1.0
102
RTVSPost2010PropOp57
 70
     1
102
RTVSPropertyOp0
 70
     1
102
RTVSPropertyOp1
 70
     1
102
RTVSPropertyOp2
 70
     1
102
RTVSPropertyOp3
 70
     1
102
RTVSPropertyOp4
 70
     1
102
RTVSPropertyOp5
 70
     1
102
RTVSPropertyOp6
 70
     1
102
RTVSPropertyOp7
 70
     1
102
RTVSPropertyOp8
 70
     1
102
RTVSPropertyOp9
 70
     1
102
RTVSPropertyOp10
 70
     1
102
RTVSPropertyOp11
 70
     1
102
RTVSPropertyOp12
 70
     1
102
RTVSPropertyOp13
 70
     1
102
RTVSPropertyOp14
 70
     1
102
RTVSPropertyOp15
 70
     1
102
RTVSPropertyOp16
 70
     1
102
RTVSPropertyOp17
 70
     1
102
RTVSPropertyOp18
 70
     1
102
RTVSPropertyOp19
 70
     1
102
RTVSPropertyOp20
 70
     1
102
RTVSPropertyOp21
 70
     1
102
RTVSPropertyOp22
 70
     1
102
RTVSPropertyOp23
 70
     1
102
RTVSPropertyOp24
 70
     1
102
RTVSPropertyOp25
 70
     1
102
RTVSPropertyOp26
 70
     1
102
RTVSPropertyOp27
 70
     1
102
RTVSPropertyOp28
 70
     1
102
RTVSPropertyOp29
 70
     1
102
RTVSPropertyOp30
 70
     1
102
RTVSPropertyOp31
 70
     1
102
RTVSPropertyOp32
 70
     1
102
RTVSPropertyOp33
 70
     1
102
RTVSPropertyOp34
 70
     1
102
RTVSPropertyOp35
 70
     1
102
RTVSPropertyOp36
 70
     1
102
RTVSPropertyOp37
 70
     1
102
RTVSPropertyOp38
 70
     1
102
RTVSPropertyOp39
 70
     1
102
RTVSPropertyOp40
 70
     1
102
RTVSPropertyOp41
 70
     1
102
RTVSPropertyOp42
 70
     1
102
RTVSPropertyOp43
 70
     1
102
RTVSPropertyOp44
 70
     1
102
RTVSPropertyOp45
 70
     1
102
RTVSPropertyOp46
 70
     1
102
RTVSPropertyOp47
 70
     1
102
RTVSPropertyOp48
 70
     1
102
RTVSPropertyOp49
 70
     1
102
RTVSPropertyOp50
 70
     1
102
RTVSPropertyOp51
 70
     0
102
RTVSPropertyOp52
 70
     0
102
RTVSPropertyOp53
 70
     1
102
RTVSPropertyOp54
 70
     1
102
RTVSPropertyOp55
 70
     1
102
RTVSPropertyOp56
 70
     1
102
RTVSPropertyOp57
 70
     1
102
RTVSPropertyOp58
 70
     1
102
RTVSPropertyOp59
 70
     1
102
RTVSPropertyOp60
 70
     1
102
RTVSPropertyOp61
 70
     1
102
RTVSPropertyOp62
 70
     1
  0
XRECORD
  5
3069
102
{ACAD_REACTORS
330
3068
102
}
330
3068
100
AcDbXrecord
280
     1
102
RTVSPost2010Prop28
280
     0
102
RTVSPost2010PropOp28
 70
     1
102
RTVSPost2010Prop29
280
     1
102
RTVSPost2010PropOp29
 70
     1
102
RTVSPost2010Prop30
280
     1
102
RTVSPost2010PropOp30
 70
     1
102
RTVSPost2010Prop31
280
     0
102
RTVSPost2010PropOp31
 70
     1
102
RTVSPost2010Prop32
280
     0
102
RTVSPost2010PropOp32
 70
     1
102
RTVSPost2010Prop33
280
     0
102
RTVSPost2010PropOp33
 70
     1
102
RTVSPost2010Prop34
280
     0
102
RTVSPost2010PropOp34
 70
     1
102
RTVSPost2010Prop35
280
     0
102
RTVSPost2010PropOp35
 70
     1
102
RTVSPost2010Prop36
280
     0
102
RTVSPost2010PropOp36
 70
     1
102
RTVSPost2010Prop37
 90
       50
102
RTVSPost2010PropOp37
 70
     1
102
RTVSPost2010Prop38
140
0.0
102
RTVSPost2010PropOp38
 70
     1
102
RTVSPost2010Prop39
140
1.0
102
RTVSPost2010PropOp39
 70
     1
102
RTVSPost2010Prop40
 90
        0
102
RTVSPost2010PropOp40
 70
     1
102
RTVSPost2010Prop41ColorIndex
 90
       18
102
RTVSPost2010Prop41ColorRGB
 90
        0
102
RTVSPost2010PropOp41
 70
     1
102
RTVSPost2010Prop42
 90
       50
102
RTVSPost2010PropOp42
 70
     1
102
RTVSPost2010Prop43
 90
        3
102
RTVSPost2010PropOp43
 70
     1
102
RTVSPost2010Prop44ColorIndex
 90
        5
102
RTVSPost2010Prop44ColorRGB
 90
      255
102
RTVSPost2010PropOp44
 70
     1
102
RTVSPost2010Prop45
280
     0
102
RTVSPost2010PropOp45
 70
     1
102
RTVSPost2010Prop46
 90
       50
102
RTVSPost2010PropOp46
 70
     1
102
RTVSPost2010Prop47
 90
       50
102
RTVSPost2010PropOp47
 70
     1
102
RTVSPost2010Prop48
 90
       50
102
RTVSPost2010PropOp48
 70
     1
102
RTVSPost2010Prop49
280
     0
102
RTVSPost2010PropOp49
 70
     1
102
RTVSPost2010Prop50
 90
       50
102
RTVSPost2010PropOp50
 70
     1
102
RTVSPost2010Prop51ColorIndex
 90
      256
102
RTVSPost2010Prop51ColorRGB
 90
-16777216
102
RTVSPost2010PropOp51
 70
     0
102
RTVSPost2010Prop52
140
1.0
102
RTVSPost2010PropOp52
 70
     0
102
RTVSPost2010Prop53
 90
        2
102
RTVSPost2010PropOp53
 70
     1
102
RTVSPost2010Prop54
  1
strokes_ogs.tif
102
RTVSPost2010PropOp54
 70
     1
102
RTVSPost2010Prop55
280
     0
102
RTVSPost2010PropOp55
 70
     1
102
RTVSPost2010Prop56
140
1.0
102
RTVSPost2010PropOp56
 70
     1
102
RTVSPost2010Prop57
140
1.0
102
RTVSPost2010PropOp57
 70
     1
102
RTVSPropertyOp0
 70
     1
102
RTVSPropertyOp1
 70
     1
102
RTVSPropertyOp2
 70
     1
102
RTVSPropertyOp3
 70
     1
102
RTVSPropertyOp4
 70
     1
102
RTVSPropertyOp5
 70
     1
102
RTVSPropertyOp6
 70
     1
102
RTVSPropertyOp7
 70
     1
102
RTVSPropertyOp8
 70
     1
102
RTVSPropertyOp9
 70
     1
102
RTVSPropertyOp10
 70
     1
102
RTVSPropertyOp11
 70
     1
102
RTVSPropertyOp12
 70
     1
102
RTVSPropertyOp13
 70
     1
102
RTVSPropertyOp14
 70
     1
102
RTVSPropertyOp15
 70
     1
102
RTVSPropertyOp16
 70
     1
102
RTVSPropertyOp17
 70
     1
102
RTVSPropertyOp18
 70
     1
102
RTVSPropertyOp19
 70
     1
102
RTVSPropertyOp20
 70
     1
102
RTVSPropertyOp21
 70
     1
102
RTVSPropertyOp22
 70
     1
102
RTVSPropertyOp23
 70
     1
102
RTVSPropertyOp24
 70
     1
102
RTVSPropertyOp25
 70
     1
102
RTVSPropertyOp26
 70
     1
102
RTVSPropertyOp27
 70
     1
102
RTVSPropertyOp28
 70
     1
102
RTVSPropertyOp29
 70
     1
102
RTVSPropertyOp30
 70
     1
102
RTVSPropertyOp31
 70
     1
102
RTVSPropertyOp32
 70
     1
102
RTVSPropertyOp33
 70
     1
102
RTVSPropertyOp34
 70
     1
102
RTVSPropertyOp35
 70
     1
102
RTVSPropertyOp36
 70
     1
102
RTVSPropertyOp37
 70
     1
102
RTVSPropertyOp38
 70
     1
102
RTVSPropertyOp39
 70
     1
102
RTVSPropertyOp40
 70
     1
102
RTVSPropertyOp41
 70
     1
102
RTVSPropertyOp42
 70
     1
102
RTVSPropertyOp43
 70
     1
102
RTVSPropertyOp44
 70
     1
102
RTVSPropertyOp45
 70
     1
102
RTVSPropertyOp46
 70
     1
102
RTVSPropertyOp47
 70
     1
102
RTVSPropertyOp48
 70
     1
102
RTVSPropertyOp49
 70
     1
102
RTVSPropertyOp50
 70
     1
102
RTVSPropertyOp51
 70
     0
102
RTVSPropertyOp52
 70
     0
102
RTVSPropertyOp53
 70
     1
102
RTVSPropertyOp54
 70
     1
102
RTVSPropertyOp55
 70
     1
102
RTVSPropertyOp56
 70
     1
102
RTVSPropertyOp57
 70
     1
102
RTVSPropertyOp58
 70
     1
102
RTVSPropertyOp59
 70
     1
102
RTVSPropertyOp60
 70
     1
102
RTVSPropertyOp61
 70
     1
102
RTVSPropertyOp62
 70
     1
  0
XRECORD
  5
3071
102
{ACAD_REACTORS
330
3070
102
}
330
3070
100
AcDbXrecord
280
     1
102
RTVSPost2010Prop28
280
     0
102
RTVSPost2010PropOp28
 70
     1
102
RTVSPost2010Prop29
280
     1
102
RTVSPost2010PropOp29
 70
     1
102
RTVSPost2010Prop30
280
     1
102
RTVSPost2010PropOp30
 70
     1
102
RTVSPost2010Prop31
280
     0
102
RTVSPost2010PropOp31
 70
     1
102
RTVSPost2010Prop32
280
     0
102
RTVSPost2010PropOp32
 70
     1
102
RTVSPost2010Prop33
280
     0
102
RTVSPost2010PropOp33
 70
     1
102
RTVSPost2010Prop34
280
     0
102
RTVSPost2010PropOp34
 70
     1
102
RTVSPost2010Prop35
280
     0
102
RTVSPost2010PropOp35
 70
     1
102
RTVSPost2010Prop36
280
     0
102
RTVSPost2010PropOp36
 70
     1
102
RTVSPost2010Prop37
 90
       50
102
RTVSPost2010PropOp37
 70
     1
102
RTVSPost2010Prop38
140
0.0
102
RTVSPost2010PropOp38
 70
     1
102
RTVSPost2010Prop39
140
1.0
102
RTVSPost2010PropOp39
 70
     1
102
RTVSPost2010Prop40
 90
        0
102
RTVSPost2010PropOp40
 70
     1
102
RTVSPost2010Prop41ColorIndex
 90
       18
102
RTVSPost2010Prop41ColorRGB
 90
        0
102
RTVSPost2010PropOp41
 70
     1
102
RTVSPost2010Prop42
 90
       50
102
RTVSPost2010PropOp42
 70
     1
102
RTVSPost2010Prop43
 90
        3
102
RTVSPost2010PropOp43
 70
     1
102
RTVSPost2010Prop44ColorIndex
 90
        5
102
RTVSPost2010Prop44ColorRGB
 90
      255
102
RTVSPost2010PropOp44
 70
     1
102
RTVSPost2010Prop45
280
     0
102
RTVSPost2010PropOp45
 70
     1
102
RTVSPost2010Prop46
 90
       50
102
RTVSPost2010PropOp46
 70
     1
102
RTVSPost2010Prop47
 90
       50
102
RTVSPost2010PropOp47
 70
     1
102
RTVSPost2010Prop48
 90
       50
102
RTVSPost2010PropOp48
 70
     1
102
RTVSPost2010Prop49
280
     0
102
RTVSPost2010PropOp49
 70
     1
102
RTVSPost2010Prop50
 90
       50
102
RTVSPost2010PropOp50
 70
     1
102
RTVSPost2010Prop51ColorIndex
 90
      256
102
RTVSPost2010Prop51ColorRGB
 90
-16777216
102
RTVSPost2010PropOp51
 70
     0
102
RTVSPost2010Prop52
140
1.0
102
RTVSPost2010PropOp52
 70
     0
102
RTVSPost2010Prop53
 90
        2
102
RTVSPost2010PropOp53
 70
     1
102
RTVSPost2010Prop54
  1
strokes_ogs.tif
102
RTVSPost2010PropOp54
 70
     1
102
RTVSPost2010Prop55
280
     0
102
RTVSPost2010PropOp55
 70
     1
102
RTVSPost2010Prop56
140
1.0
102
RTVSPost2010PropOp56
 70
     1
102
RTVSPost2010Prop57
140
1.0
102
RTVSPost2010PropOp57
 70
     1
102
RTVSPropertyOp0
 70
     1
102
RTVSPropertyOp1
 70
     1
102
RTVSPropertyOp2
 70
     1
102
RTVSPropertyOp3
 70
     1
102
RTVSPropertyOp4
 70
     1
102
RTVSPropertyOp5
 70
     1
102
RTVSPropertyOp6
 70
     1
102
RTVSPropertyOp7
 70
     1
102
RTVSPropertyOp8
 70
     1
102
RTVSPropertyOp9
 70
     1
102
RTVSPropertyOp10
 70
     1
102
RTVSPropertyOp11
 70
     1
102
RTVSPropertyOp12
 70
     1
102
RTVSPropertyOp13
 70
     1
102
RTVSPropertyOp14
 70
     1
102
RTVSPropertyOp15
 70
     1
102
RTVSPropertyOp16
 70
     1
102
RTVSPropertyOp17
 70
     1
102
RTVSPropertyOp18
 70
     1
102
RTVSPropertyOp19
 70
     1
102
RTVSPropertyOp20
 70
     1
102
RTVSPropertyOp21
 70
     1
102
RTVSPropertyOp22
 70
     1
102
RTVSPropertyOp23
 70
     1
102
RTVSPropertyOp24
 70
     1
102
RTVSPropertyOp25
 70
     1
102
RTVSPropertyOp26
 70
     1
102
RTVSPropertyOp27
 70
     1
102
RTVSPropertyOp28
 70
     1
102
RTVSPropertyOp29
 70
     1
102
RTVSPropertyOp30
 70
     1
102
RTVSPropertyOp31
 70
     1
102
RTVSPropertyOp32
 70
     1
102
RTVSPropertyOp33
 70
     1
102
RTVSPropertyOp34
 70
     1
102
RTVSPropertyOp35
 70
     1
102
RTVSPropertyOp36
 70
     1
102
RTVSPropertyOp37
 70
     1
102
RTVSPropertyOp38
 70
     1
102
RTVSPropertyOp39
 70
     1
102
RTVSPropertyOp40
 70
     1
102
RTVSPropertyOp41
 70
     1
102
RTVSPropertyOp42
 70
     1
102
RTVSPropertyOp43
 70
     1
102
RTVSPropertyOp44
 70
     1
102
RTVSPropertyOp45
 70
     1
102
RTVSPropertyOp46
 70
     1
102
RTVSPropertyOp47
 70
     1
102
RTVSPropertyOp48
 70
     1
102
RTVSPropertyOp49
 70
     1
102
RTVSPropertyOp50
 70
     1
102
RTVSPropertyOp51
 70
     0
102
RTVSPropertyOp52
 70
     0
102
RTVSPropertyOp53
 70
     1
102
RTVSPropertyOp54
 70
     1
102
RTVSPropertyOp55
 70
     1
102
RTVSPropertyOp56
 70
     1
102
RTVSPropertyOp57
 70
     1
102
RTVSPropertyOp58
 70
     1
102
RTVSPropertyOp59
 70
     1
102
RTVSPropertyOp60
 70
     1
102
RTVSPropertyOp61
 70
     1
102
RTVSPropertyOp62
 70
     1
  0
XRECORD
  5
308D
102
{ACAD_REACTORS
330
308C
102
}
330
308C
100
AcDbXrecord
280
     1
102
RTVSPost2010Prop28
280
     0
102
RTVSPost2010PropOp28
 70
     0
102
RTVSPost2010Prop29
280
     1
102
RTVSPost2010PropOp29
 70
     0
102
RTVSPost2010Prop30
280
     1
102
RTVSPost2010PropOp30
 70
     0
102
RTVSPost2010Prop31
280
     0
102
RTVSPost2010PropOp31
 70
     0
102
RTVSPost2010Prop32
280
     0
102
RTVSPost2010PropOp32
 70
     0
102
RTVSPost2010Prop33
280
     0
102
RTVSPost2010PropOp33
 70
     0
102
RTVSPost2010Prop34
280
     0
102
RTVSPost2010PropOp34
 70
     0
102
RTVSPost2010Prop35
280
     0
102
RTVSPost2010PropOp35
 70
     0
102
RTVSPost2010Prop36
280
     0
102
RTVSPost2010PropOp36
 70
     0
102
RTVSPost2010Prop37
 90
       50
102
RTVSPost2010PropOp37
 70
     0
102
RTVSPost2010Prop38
140
0.0
102
RTVSPost2010PropOp38
 70
     0
102
RTVSPost2010Prop39
140
1.0
102
RTVSPost2010PropOp39
 70
     0
102
RTVSPost2010Prop40
 90
        0
102
RTVSPost2010PropOp40
 70
     0
102
RTVSPost2010Prop41ColorIndex
 90
       18
102
RTVSPost2010Prop41ColorRGB
 90
        0
102
RTVSPost2010PropOp41
 70
     0
102
RTVSPost2010Prop42
 90
       50
102
RTVSPost2010PropOp42
 70
     0
102
RTVSPost2010Prop43
 90
        3
102
RTVSPost2010PropOp43
 70
     0
102
RTVSPost2010Prop44ColorIndex
 90
        5
102
RTVSPost2010Prop44ColorRGB
 90
      255
102
RTVSPost2010PropOp44
 70
     0
102
RTVSPost2010Prop45
280
     0
102
RTVSPost2010PropOp45
 70
     0
102
RTVSPost2010Prop46
 90
       50
102
RTVSPost2010PropOp46
 70
     0
102
RTVSPost2010Prop47
 90
       50
102
RTVSPost2010PropOp47
 70
     0
102
RTVSPost2010Prop48
 90
       50
102
RTVSPost2010PropOp48
 70
     0
102
RTVSPost2010Prop49
280
     0
102
RTVSPost2010PropOp49
 70
     0
102
RTVSPost2010Prop50
 90
       50
102
RTVSPost2010PropOp50
 70
     0
102
RTVSPost2010Prop51ColorIndex
 90
      256
102
RTVSPost2010Prop51ColorRGB
 90
-16777216
102
RTVSPost2010PropOp51
 70
     0
102
RTVSPost2010Prop52
140
1.0
102
RTVSPost2010PropOp52
 70
     0
102
RTVSPost2010Prop53
 90
        2
102
RTVSPost2010PropOp53
 70
     0
102
RTVSPost2010Prop54
  1
strokes_ogs.tif
102
RTVSPost2010PropOp54
 70
     0
102
RTVSPost2010Prop55
280
     0
102
RTVSPost2010PropOp55
 70
     0
102
RTVSPost2010Prop56
140
1.0
102
RTVSPost2010PropOp56
 70
     0
102
RTVSPost2010Prop57
140
1.0
102
RTVSPost2010PropOp57
 70
     0
102
RTVSPropertyOp0
 70
     0
102
RTVSPropertyOp1
 70
     0
102
RTVSPropertyOp2
 70
     0
102
RTVSPropertyOp3
 70
     0
102
RTVSPropertyOp4
 70
     0
102
RTVSPropertyOp5
 70
     0
102
RTVSPropertyOp6
 70
     0
102
RTVSPropertyOp7
 70
     0
102
RTVSPropertyOp8
 70
     0
102
RTVSPropertyOp9
 70
     0
102
RTVSPropertyOp10
 70
     0
102
RTVSPropertyOp11
 70
     0
102
RTVSPropertyOp12
 70
     0
102
RTVSPropertyOp13
 70
     0
102
RTVSPropertyOp14
 70
     2
102
RTVSPropertyOp15
 70
     0
102
RTVSPropertyOp16
 70
     0
102
RTVSPropertyOp17
 70
     0
102
RTVSPropertyOp18
 70
     0
102
RTVSPropertyOp19
 70
     0
102
RTVSPropertyOp20
 70
     0
102
RTVSPropertyOp21
 70
     0
102
RTVSPropertyOp22
 70
     0
102
RTVSPropertyOp23
 70
     0
102
RTVSPropertyOp24
 70
     0
102
RTVSPropertyOp25
 70
     0
102
RTVSPropertyOp26
 70
     0
102
RTVSPropertyOp27
 70
     0
102
RTVSPropertyOp28
 70
     0
102
RTVSPropertyOp29
 70
     0
102
RTVSPropertyOp30
 70
     0
102
RTVSPropertyOp31
 70
     0
102
RTVSPropertyOp32
 70
     0
102
RTVSPropertyOp33
 70
     0
102
RTVSPropertyOp34
 70
     0
102
RTVSPropertyOp35
 70
     0
102
RTVSPropertyOp36
 70
     0
102
RTVSPropertyOp37
 70
     0
102
RTVSPropertyOp38
 70
     0
102
RTVSPropertyOp39
 70
     0
102
RTVSPropertyOp40
 70
     0
102
RTVSPropertyOp41
 70
     0
102
RTVSPropertyOp42
 70
     0
102
RTVSPropertyOp43
 70
     0
102
RTVSPropertyOp44
 70
     0
102
RTVSPropertyOp45
 70
     0
102
RTVSPropertyOp46
 70
     0
102
RTVSPropertyOp47
 70
     0
102
RTVSPropertyOp48
 70
     0
102
RTVSPropertyOp49
 70
     0
102
RTVSPropertyOp50
 70
     0
102
RTVSPropertyOp51
 70
     0
102
RTVSPropertyOp52
 70
     0
102
RTVSPropertyOp53
 70
     0
102
RTVSPropertyOp54
 70
     0
102
RTVSPropertyOp55
 70
     0
102
RTVSPropertyOp56
 70
     0
102
RTVSPropertyOp57
 70
     0
102
RTVSPropertyOp58
 70
     1
102
RTVSPropertyOp59
 70
     1
102
RTVSPropertyOp60
 70
     1
102
RTVSPropertyOp61
 70
     1
102
RTVSPropertyOp62
 70
     1
  0
XRECORD
  5
307D
102
{ACAD_REACTORS
330
307C
102
}
330
307C
100
AcDbXrecord
280
     1
102
RTVSPost2010Prop28
280
     0
102
RTVSPost2010PropOp28
 70
     1
102
RTVSPost2010Prop29
280
     1
102
RTVSPost2010PropOp29
 70
     1
102
RTVSPost2010Prop30
280
     1
102
RTVSPost2010PropOp30
 70
     1
102
RTVSPost2010Prop31
280
     0
102
RTVSPost2010PropOp31
 70
     1
102
RTVSPost2010Prop32
280
     0
102
RTVSPost2010PropOp32
 70
     1
102
RTVSPost2010Prop33
280
     0
102
RTVSPost2010PropOp33
 70
     1
102
RTVSPost2010Prop34
280
     0
102
RTVSPost2010PropOp34
 70
     1
102
RTVSPost2010Prop35
280
     0
102
RTVSPost2010PropOp35
 70
     1
102
RTVSPost2010Prop36
280
     0
102
RTVSPost2010PropOp36
 70
     1
102
RTVSPost2010Prop37
 90
       50
102
RTVSPost2010PropOp37
 70
     1
102
RTVSPost2010Prop38
140
0.0
102
RTVSPost2010PropOp38
 70
     1
102
RTVSPost2010Prop39
140
1.0
102
RTVSPost2010PropOp39
 70
     1
102
RTVSPost2010Prop40
 90
        0
102
RTVSPost2010PropOp40
 70
     1
102
RTVSPost2010Prop41ColorIndex
 90
       18
102
RTVSPost2010Prop41ColorRGB
 90
        0
102
RTVSPost2010PropOp41
 70
     1
102
RTVSPost2010Prop42
 90
       50
102
RTVSPost2010PropOp42
 70
     1
102
RTVSPost2010Prop43
 90
        3
102
RTVSPost2010PropOp43
 70
     1
102
RTVSPost2010Prop44ColorIndex
 90
        5
102
RTVSPost2010Prop44ColorRGB
 90
      255
102
RTVSPost2010PropOp44
 70
     1
102
RTVSPost2010Prop45
280
     0
102
RTVSPost2010PropOp45
 70
     1
102
RTVSPost2010Prop46
 90
       50
102
RTVSPost2010PropOp46
 70
     1
102
RTVSPost2010Prop47
 90
       50
102
RTVSPost2010PropOp47
 70
     1
102
RTVSPost2010Prop48
 90
       50
102
RTVSPost2010PropOp48
 70
     1
102
RTVSPost2010Prop49
280
     0
102
RTVSPost2010PropOp49
 70
     1
102
RTVSPost2010Prop50
 90
       50
102
RTVSPost2010PropOp50
 70
     1
102
RTVSPost2010Prop51ColorIndex
 90
      256
102
RTVSPost2010Prop51ColorRGB
 90
-16777216
102
RTVSPost2010PropOp51
 70
     0
102
RTVSPost2010Prop52
140
1.0
102
RTVSPost2010PropOp52
 70
     0
102
RTVSPost2010Prop53
 90
        2
102
RTVSPost2010PropOp53
 70
     1
102
RTVSPost2010Prop54
  1
strokes_ogs.tif
102
RTVSPost2010PropOp54
 70
     1
102
RTVSPost2010Prop55
280
     0
102
RTVSPost2010PropOp55
 70
     1
102
RTVSPost2010Prop56
140
1.0
102
RTVSPost2010PropOp56
 70
     1
102
RTVSPost2010Prop57
140
1.0
102
RTVSPost2010PropOp57
 70
     1
102
RTVSPropertyOp0
 70
     1
102
RTVSPropertyOp1
 70
     1
102
RTVSPropertyOp2
 70
     1
102
RTVSPropertyOp3
 70
     1
102
RTVSPropertyOp4
 70
     1
102
RTVSPropertyOp5
 70
     1
102
RTVSPropertyOp6
 70
     1
102
RTVSPropertyOp7
 70
     1
102
RTVSPropertyOp8
 70
     1
102
RTVSPropertyOp9
 70
     1
102
RTVSPropertyOp10
 70
     1
102
RTVSPropertyOp11
 70
     1
102
RTVSPropertyOp12
 70
     1
102
RTVSPropertyOp13
 70
     1
102
RTVSPropertyOp14
 70
     1
102
RTVSPropertyOp15
 70
     1
102
RTVSPropertyOp16
 70
     1
102
RTVSPropertyOp17
 70
     1
102
RTVSPropertyOp18
 70
     1
102
RTVSPropertyOp19
 70
     1
102
RTVSPropertyOp20
 70
     1
102
RTVSPropertyOp21
 70
     1
102
RTVSPropertyOp22
 70
     1
102
RTVSPropertyOp23
 70
     1
102
RTVSPropertyOp24
 70
     1
102
RTVSPropertyOp25
 70
     1
102
RTVSPropertyOp26
 70
     1
102
RTVSPropertyOp27
 70
     1
102
RTVSPropertyOp28
 70
     1
102
RTVSPropertyOp29
 70
     1
102
RTVSPropertyOp30
 70
     1
102
RTVSPropertyOp31
 70
     1
102
RTVSPropertyOp32
 70
     1
102
RTVSPropertyOp33
 70
     1
102
RTVSPropertyOp34
 70
     1
102
RTVSPropertyOp35
 70
     1
102
RTVSPropertyOp36
 70
     1
102
RTVSPropertyOp37
 70
     1
102
RTVSPropertyOp38
 70
     1
102
RTVSPropertyOp39
 70
     1
102
RTVSPropertyOp40
 70
     1
102
RTVSPropertyOp41
 70
     1
102
RTVSPropertyOp42
 70
     1
102
RTVSPropertyOp43
 70
     1
102
RTVSPropertyOp44
 70
     1
102
RTVSPropertyOp45
 70
     1
102
RTVSPropertyOp46
 70
     1
102
RTVSPropertyOp47
 70
     1
102
RTVSPropertyOp48
 70
     1
102
RTVSPropertyOp49
 70
     1
102
RTVSPropertyOp50
 70
     1
102
RTVSPropertyOp51
 70
     0
102
RTVSPropertyOp52
 70
     0
102
RTVSPropertyOp53
 70
     1
102
RTVSPropertyOp54
 70
     1
102
RTVSPropertyOp55
 70
     1
102
RTVSPropertyOp56
 70
     1
102
RTVSPropertyOp57
 70
     1
102
RTVSPropertyOp58
 70
     1
102
RTVSPropertyOp59
 70
     1
102
RTVSPropertyOp60
 70
     1
102
RTVSPropertyOp61
 70
     1
102
RTVSPropertyOp62
 70
     1
  0
XRECORD
  5
308F
102
{ACAD_REACTORS
330
308E
102
}
330
308E
100
AcDbXrecord
280
     1
102
RTVSPost2010Prop28
280
     0
102
RTVSPost2010PropOp28
 70
     0
102
RTVSPost2010Prop29
280
     1
102
RTVSPost2010PropOp29
 70
     0
102
RTVSPost2010Prop30
280
     1
102
RTVSPost2010PropOp30
 70
     0
102
RTVSPost2010Prop31
280
     0
102
RTVSPost2010PropOp31
 70
     0
102
RTVSPost2010Prop32
280
     0
102
RTVSPost2010PropOp32
 70
     0
102
RTVSPost2010Prop33
280
     0
102
RTVSPost2010PropOp33
 70
     0
102
RTVSPost2010Prop34
280
     0
102
RTVSPost2010PropOp34
 70
     0
102
RTVSPost2010Prop35
280
     0
102
RTVSPost2010PropOp35
 70
     0
102
RTVSPost2010Prop36
280
     0
102
RTVSPost2010PropOp36
 70
     0
102
RTVSPost2010Prop37
 90
       50
102
RTVSPost2010PropOp37
 70
     0
102
RTVSPost2010Prop38
140
0.0
102
RTVSPost2010PropOp38
 70
     0
102
RTVSPost2010Prop39
140
1.0
102
RTVSPost2010PropOp39
 70
     0
102
RTVSPost2010Prop40
 90
        0
102
RTVSPost2010PropOp40
 70
     0
102
RTVSPost2010Prop41ColorIndex
 90
       18
102
RTVSPost2010Prop41ColorRGB
 90
        0
102
RTVSPost2010PropOp41
 70
     0
102
RTVSPost2010Prop42
 90
       50
102
RTVSPost2010PropOp42
 70
     0
102
RTVSPost2010Prop43
 90
        3
102
RTVSPost2010PropOp43
 70
     0
102
RTVSPost2010Prop44ColorIndex
 90
        5
102
RTVSPost2010Prop44ColorRGB
 90
      255
102
RTVSPost2010PropOp44
 70
     0
102
RTVSPost2010Prop45
280
     0
102
RTVSPost2010PropOp45
 70
     0
102
RTVSPost2010Prop46
 90
       50
102
RTVSPost2010PropOp46
 70
     0
102
RTVSPost2010Prop47
 90
       50
102
RTVSPost2010PropOp47
 70
     0
102
RTVSPost2010Prop48
 90
       50
102
RTVSPost2010PropOp48
 70
     0
102
RTVSPost2010Prop49
280
     0
102
RTVSPost2010PropOp49
 70
     0
102
RTVSPost2010Prop50
 90
       50
102
RTVSPost2010PropOp50
 70
     0
102
RTVSPost2010Prop51ColorIndex
 90
      256
102
RTVSPost2010Prop51ColorRGB
 90
-16777216
102
RTVSPost2010PropOp51
 70
     0
102
RTVSPost2010Prop52
140
1.0
102
RTVSPost2010PropOp52
 70
     0
102
RTVSPost2010Prop53
 90
        2
102
RTVSPost2010PropOp53
 70
     0
102
RTVSPost2010Prop54
  1
strokes_ogs.tif
102
RTVSPost2010PropOp54
 70
     0
102
RTVSPost2010Prop55
280
     0
102
RTVSPost2010PropOp55
 70
     0
102
RTVSPost2010Prop56
140
1.0
102
RTVSPost2010PropOp56
 70
     0
102
RTVSPost2010Prop57
140
1.0
102
RTVSPost2010PropOp57
 70
     0
102
RTVSPropertyOp0
 70
     0
102
RTVSPropertyOp1
 70
     0
102
RTVSPropertyOp2
 70
     0
102
RTVSPropertyOp3
 70
     0
102
RTVSPropertyOp4
 70
     0
102
RTVSPropertyOp5
 70
     0
102
RTVSPropertyOp6
 70
     0
102
RTVSPropertyOp7
 70
     0
102
RTVSPropertyOp8
 70
     0
102
RTVSPropertyOp9
 70
     0
102
RTVSPropertyOp10
 70
     0
102
RTVSPropertyOp11
 70
     0
102
RTVSPropertyOp12
 70
     0
102
RTVSPropertyOp13
 70
     0
102
RTVSPropertyOp14
 70
     2
102
RTVSPropertyOp15
 70
     0
102
RTVSPropertyOp16
 70
     0
102
RTVSPropertyOp17
 70
     0
102
RTVSPropertyOp18
 70
     0
102
RTVSPropertyOp19
 70
     0
102
RTVSPropertyOp20
 70
     0
102
RTVSPropertyOp21
 70
     0
102
RTVSPropertyOp22
 70
     0
102
RTVSPropertyOp23
 70
     0
102
RTVSPropertyOp24
 70
     0
102
RTVSPropertyOp25
 70
     0
102
RTVSPropertyOp26
 70
     0
102
RTVSPropertyOp27
 70
     0
102
RTVSPropertyOp28
 70
     0
102
RTVSPropertyOp29
 70
     0
102
RTVSPropertyOp30
 70
     0
102
RTVSPropertyOp31
 70
     0
102
RTVSPropertyOp32
 70
     0
102
RTVSPropertyOp33
 70
     0
102
RTVSPropertyOp34
 70
     0
102
RTVSPropertyOp35
 70
     0
102
RTVSPropertyOp36
 70
     0
102
RTVSPropertyOp37
 70
     0
102
RTVSPropertyOp38
 70
     0
102
RTVSPropertyOp39
 70
     0
102
RTVSPropertyOp40
 70
     0
102
RTVSPropertyOp41
 70
     0
102
RTVSPropertyOp42
 70
     0
102
RTVSPropertyOp43
 70
     0
102
RTVSPropertyOp44
 70
     0
102
RTVSPropertyOp45
 70
     0
102
RTVSPropertyOp46
 70
     0
102
RTVSPropertyOp47
 70
     0
102
RTVSPropertyOp48
 70
     0
102
RTVSPropertyOp49
 70
     0
102
RTVSPropertyOp50
 70
     0
102
RTVSPropertyOp51
 70
     0
102
RTVSPropertyOp52
 70
     0
102
RTVSPropertyOp53
 70
     0
102
RTVSPropertyOp54
 70
     0
102
RTVSPropertyOp55
 70
     0
102
RTVSPropertyOp56
 70
     0
102
RTVSPropertyOp57
 70
     0
102
RTVSPropertyOp58
 70
     1
102
RTVSPropertyOp59
 70
     1
102
RTVSPropertyOp60
 70
     1
102
RTVSPropertyOp61
 70
     1
102
RTVSPropertyOp62
 70
     1
  0
XRECORD
  5
3075
102
{ACAD_REACTORS
330
3074
102
}
330
3074
100
AcDbXrecord
280
     1
102
RTVSPost2010Prop28
280
     0
102
RTVSPost2010PropOp28
 70
     1
102
RTVSPost2010Prop29
280
     1
102
RTVSPost2010PropOp29
 70
     1
102
RTVSPost2010Prop30
280
     1
102
RTVSPost2010PropOp30
 70
     1
102
RTVSPost2010Prop31
280
     0
102
RTVSPost2010PropOp31
 70
     1
102
RTVSPost2010Prop32
280
     0
102
RTVSPost2010PropOp32
 70
     1
102
RTVSPost2010Prop33
280
     0
102
RTVSPost2010PropOp33
 70
     1
102
RTVSPost2010Prop34
280
     0
102
RTVSPost2010PropOp34
 70
     1
102
RTVSPost2010Prop35
280
     0
102
RTVSPost2010PropOp35
 70
     1
102
RTVSPost2010Prop36
280
     0
102
RTVSPost2010PropOp36
 70
     1
102
RTVSPost2010Prop37
 90
       50
102
RTVSPost2010PropOp37
 70
     1
102
RTVSPost2010Prop38
140
0.0
102
RTVSPost2010PropOp38
 70
     1
102
RTVSPost2010Prop39
140
1.0
102
RTVSPost2010PropOp39
 70
     1
102
RTVSPost2010Prop40
 90
        0
102
RTVSPost2010PropOp40
 70
     1
102
RTVSPost2010Prop41ColorIndex
 90
       18
102
RTVSPost2010Prop41ColorRGB
 90
        0
102
RTVSPost2010PropOp41
 70
     1
102
RTVSPost2010Prop42
 90
       50
102
RTVSPost2010PropOp42
 70
     1
102
RTVSPost2010Prop43
 90
        3
102
RTVSPost2010PropOp43
 70
     1
102
RTVSPost2010Prop44ColorIndex
 90
        5
102
RTVSPost2010Prop44ColorRGB
 90
      255
102
RTVSPost2010PropOp44
 70
     1
102
RTVSPost2010Prop45
280
     0
102
RTVSPost2010PropOp45
 70
     1
102
RTVSPost2010Prop46
 90
       50
102
RTVSPost2010PropOp46
 70
     1
102
RTVSPost2010Prop47
 90
       50
102
RTVSPost2010PropOp47
 70
     1
102
RTVSPost2010Prop48
 90
       50
102
RTVSPost2010PropOp48
 70
     1
102
RTVSPost2010Prop49
280
     0
102
RTVSPost2010PropOp49
 70
     1
102
RTVSPost2010Prop50
 90
       50
102
RTVSPost2010PropOp50
 70
     1
102
RTVSPost2010Prop51ColorIndex
 90
      256
102
RTVSPost2010Prop51ColorRGB
 90
-16777216
102
RTVSPost2010PropOp51
 70
     0
102
RTVSPost2010Prop52
140
1.0
102
RTVSPost2010PropOp52
 70
     0
102
RTVSPost2010Prop53
 90
        2
102
RTVSPost2010PropOp53
 70
     1
102
RTVSPost2010Prop54
  1
strokes_ogs.tif
102
RTVSPost2010PropOp54
 70
     1
102
RTVSPost2010Prop55
280
     0
102
RTVSPost2010PropOp55
 70
     1
102
RTVSPost2010Prop56
140
1.0
102
RTVSPost2010PropOp56
 70
     1
102
RTVSPost2010Prop57
140
1.0
102
RTVSPost2010PropOp57
 70
     1
102
RTVSPropertyOp0
 70
     1
102
RTVSPropertyOp1
 70
     1
102
RTVSPropertyOp2
 70
     1
102
RTVSPropertyOp3
 70
     1
102
RTVSPropertyOp4
 70
     1
102
RTVSPropertyOp5
 70
     1
102
RTVSPropertyOp6
 70
     1
102
RTVSPropertyOp7
 70
     1
102
RTVSPropertyOp8
 70
     1
102
RTVSPropertyOp9
 70
     1
102
RTVSPropertyOp10
 70
     1
102
RTVSPropertyOp11
 70
     1
102
RTVSPropertyOp12
 70
     1
102
RTVSPropertyOp13
 70
     1
102
RTVSPropertyOp14
 70
     1
102
RTVSPropertyOp15
 70
     1
102
RTVSPropertyOp16
 70
     1
102
RTVSPropertyOp17
 70
     1
102
RTVSPropertyOp18
 70
     1
102
RTVSPropertyOp19
 70
     1
102
RTVSPropertyOp20
 70
     1
102
RTVSPropertyOp21
 70
     1
102
RTVSPropertyOp22
 70
     1
102
RTVSPropertyOp23
 70
     1
102
RTVSPropertyOp24
 70
     1
102
RTVSPropertyOp25
 70
     1
102
RTVSPropertyOp26
 70
     1
102
RTVSPropertyOp27
 70
     1
102
RTVSPropertyOp28
 70
     1
102
RTVSPropertyOp29
 70
     1
102
RTVSPropertyOp30
 70
     1
102
RTVSPropertyOp31
 70
     1
102
RTVSPropertyOp32
 70
     1
102
RTVSPropertyOp33
 70
     1
102
RTVSPropertyOp34
 70
     1
102
RTVSPropertyOp35
 70
     1
102
RTVSPropertyOp36
 70
     1
102
RTVSPropertyOp37
 70
     1
102
RTVSPropertyOp38
 70
     1
102
RTVSPropertyOp39
 70
     1
102
RTVSPropertyOp40
 70
     1
102
RTVSPropertyOp41
 70
     1
102
RTVSPropertyOp42
 70
     1
102
RTVSPropertyOp43
 70
     1
102
RTVSPropertyOp44
 70
     1
102
RTVSPropertyOp45
 70
     1
102
RTVSPropertyOp46
 70
     1
102
RTVSPropertyOp47
 70
     1
102
RTVSPropertyOp48
 70
     1
102
RTVSPropertyOp49
 70
     1
102
RTVSPropertyOp50
 70
     1
102
RTVSPropertyOp51
 70
     0
102
RTVSPropertyOp52
 70
     0
102
RTVSPropertyOp53
 70
     1
102
RTVSPropertyOp54
 70
     1
102
RTVSPropertyOp55
 70
     1
102
RTVSPropertyOp56
 70
     1
102
RTVSPropertyOp57
 70
     1
102
RTVSPropertyOp58
 70
     1
102
RTVSPropertyOp59
 70
     1
102
RTVSPropertyOp60
 70
     1
102
RTVSPropertyOp61
 70
     1
102
RTVSPropertyOp62
 70
     1
  0
XRECORD
  5
308B
102
{ACAD_REACTORS
330
308A
102
}
330
308A
100
AcDbXrecord
280
     1
102
RTVSPost2010Prop28
280
     0
102
RTVSPost2010PropOp28
 70
     1
102
RTVSPost2010Prop29
280
     1
102
RTVSPost2010PropOp29
 70
     1
102
RTVSPost2010Prop30
280
     1
102
RTVSPost2010PropOp30
 70
     1
102
RTVSPost2010Prop31
280
     0
102
RTVSPost2010PropOp31
 70
     1
102
RTVSPost2010Prop32
280
     0
102
RTVSPost2010PropOp32
 70
     1
102
RTVSPost2010Prop33
280
     0
102
RTVSPost2010PropOp33
 70
     1
102
RTVSPost2010Prop34
280
     0
102
RTVSPost2010PropOp34
 70
     1
102
RTVSPost2010Prop35
280
     0
102
RTVSPost2010PropOp35
 70
     1
102
RTVSPost2010Prop36
280
     0
102
RTVSPost2010PropOp36
 70
     1
102
RTVSPost2010Prop37
 90
       50
102
RTVSPost2010PropOp37
 70
     1
102
RTVSPost2010Prop38
140
0.0
102
RTVSPost2010PropOp38
 70
     1
102
RTVSPost2010Prop39
140
1.0
102
RTVSPost2010PropOp39
 70
     1
102
RTVSPost2010Prop40
 90
        0
102
RTVSPost2010PropOp40
 70
     1
102
RTVSPost2010Prop41ColorIndex
 90
       18
102
RTVSPost2010Prop41ColorRGB
 90
        0
102
RTVSPost2010PropOp41
 70
     1
102
RTVSPost2010Prop42
 90
       50
102
RTVSPost2010PropOp42
 70
     1
102
RTVSPost2010Prop43
 90
        3
102
RTVSPost2010PropOp43
 70
     1
102
RTVSPost2010Prop44ColorIndex
 90
        5
102
RTVSPost2010Prop44ColorRGB
 90
      255
102
RTVSPost2010PropOp44
 70
     1
102
RTVSPost2010Prop45
280
     0
102
RTVSPost2010PropOp45
 70
     1
102
RTVSPost2010Prop46
 90
       50
102
RTVSPost2010PropOp46
 70
     1
102
RTVSPost2010Prop47
 90
       50
102
RTVSPost2010PropOp47
 70
     1
102
RTVSPost2010Prop48
 90
       50
102
RTVSPost2010PropOp48
 70
     1
102
RTVSPost2010Prop49
280
     0
102
RTVSPost2010PropOp49
 70
     1
102
RTVSPost2010Prop50
 90
       50
102
RTVSPost2010PropOp50
 70
     1
102
RTVSPost2010Prop51ColorIndex
 90
      256
102
RTVSPost2010Prop51ColorRGB
 90
-16777216
102
RTVSPost2010PropOp51
 70
     0
102
RTVSPost2010Prop52
140
1.0
102
RTVSPost2010PropOp52
 70
     0
102
RTVSPost2010Prop53
 90
        2
102
RTVSPost2010PropOp53
 70
     1
102
RTVSPost2010Prop54
  1
strokes_ogs.tif
102
RTVSPost2010PropOp54
 70
     1
102
RTVSPost2010Prop55
280
     0
102
RTVSPost2010PropOp55
 70
     1
102
RTVSPost2010Prop56
140
1.0
102
RTVSPost2010PropOp56
 70
     1
102
RTVSPost2010Prop57
140
1.0
102
RTVSPost2010PropOp57
 70
     1
102
RTVSPropertyOp0
 70
     1
102
RTVSPropertyOp1
 70
     1
102
RTVSPropertyOp2
 70
     1
102
RTVSPropertyOp3
 70
     1
102
RTVSPropertyOp4
 70
     1
102
RTVSPropertyOp5
 70
     1
102
RTVSPropertyOp6
 70
     1
102
RTVSPropertyOp7
 70
     1
102
RTVSPropertyOp8
 70
     1
102
RTVSPropertyOp9
 70
     1
102
RTVSPropertyOp10
 70
     1
102
RTVSPropertyOp11
 70
     1
102
RTVSPropertyOp12
 70
     1
102
RTVSPropertyOp13
 70
     1
102
RTVSPropertyOp14
 70
     1
102
RTVSPropertyOp15
 70
     1
102
RTVSPropertyOp16
 70
     1
102
RTVSPropertyOp17
 70
     1
102
RTVSPropertyOp18
 70
     1
102
RTVSPropertyOp19
 70
     1
102
RTVSPropertyOp20
 70
     1
102
RTVSPropertyOp21
 70
     1
102
RTVSPropertyOp22
 70
     1
102
RTVSPropertyOp23
 70
     1
102
RTVSPropertyOp24
 70
     1
102
RTVSPropertyOp25
 70
     1
102
RTVSPropertyOp26
 70
     1
102
RTVSPropertyOp27
 70
     1
102
RTVSPropertyOp28
 70
     1
102
RTVSPropertyOp29
 70
     1
102
RTVSPropertyOp30
 70
     1
102
RTVSPropertyOp31
 70
     1
102
RTVSPropertyOp32
 70
     1
102
RTVSPropertyOp33
 70
     1
102
RTVSPropertyOp34
 70
     1
102
RTVSPropertyOp35
 70
     1
102
RTVSPropertyOp36
 70
     1
102
RTVSPropertyOp37
 70
     1
102
RTVSPropertyOp38
 70
     1
102
RTVSPropertyOp39
 70
     1
102
RTVSPropertyOp40
 70
     1
102
RTVSPropertyOp41
 70
     1
102
RTVSPropertyOp42
 70
     1
102
RTVSPropertyOp43
 70
     1
102
RTVSPropertyOp44
 70
     1
102
RTVSPropertyOp45
 70
     1
102
RTVSPropertyOp46
 70
     1
102
RTVSPropertyOp47
 70
     1
102
RTVSPropertyOp48
 70
     1
102
RTVSPropertyOp49
 70
     1
102
RTVSPropertyOp50
 70
     1
102
RTVSPropertyOp51
 70
     0
102
RTVSPropertyOp52
 70
     0
102
RTVSPropertyOp53
 70
     1
102
RTVSPropertyOp54
 70
     1
102
RTVSPropertyOp55
 70
     1
102
RTVSPropertyOp56
 70
     1
102
RTVSPropertyOp57
 70
     1
102
RTVSPropertyOp58
 70
     1
102
RTVSPropertyOp59
 70
     1
102
RTVSPropertyOp60
 70
     1
102
RTVSPropertyOp61
 70
     1
102
RTVSPropertyOp62
 70
     1
  0
XRECORD
  5
3089
102
{ACAD_REACTORS
330
3088
102
}
330
3088
100
AcDbXrecord
280
     1
102
RTVSPost2010Prop28
280
     0
102
RTVSPost2010PropOp28
 70
     1
102
RTVSPost2010Prop29
280
     1
102
RTVSPost2010PropOp29
 70
     1
102
RTVSPost2010Prop30
280
     1
102
RTVSPost2010PropOp30
 70
     1
102
RTVSPost2010Prop31
280
     0
102
RTVSPost2010PropOp31
 70
     1
102
RTVSPost2010Prop32
280
     0
102
RTVSPost2010PropOp32
 70
     1
102
RTVSPost2010Prop33
280
     0
102
RTVSPost2010PropOp33
 70
     1
102
RTVSPost2010Prop34
280
     0
102
RTVSPost2010PropOp34
 70
     1
102
RTVSPost2010Prop35
280
     0
102
RTVSPost2010PropOp35
 70
     1
102
RTVSPost2010Prop36
280
     0
102
RTVSPost2010PropOp36
 70
     1
102
RTVSPost2010Prop37
 90
       50
102
RTVSPost2010PropOp37
 70
     1
102
RTVSPost2010Prop38
140
0.0
102
RTVSPost2010PropOp38
 70
     1
102
RTVSPost2010Prop39
140
1.0
102
RTVSPost2010PropOp39
 70
     1
102
RTVSPost2010Prop40
 90
        0
102
RTVSPost2010PropOp40
 70
     1
102
RTVSPost2010Prop41ColorIndex
 90
       18
102
RTVSPost2010Prop41ColorRGB
 90
        0
102
RTVSPost2010PropOp41
 70
     1
102
RTVSPost2010Prop42
 90
       50
102
RTVSPost2010PropOp42
 70
     1
102
RTVSPost2010Prop43
 90
        3
102
RTVSPost2010PropOp43
 70
     1
102
RTVSPost2010Prop44ColorIndex
 90
        5
102
RTVSPost2010Prop44ColorRGB
 90
      255
102
RTVSPost2010PropOp44
 70
     1
102
RTVSPost2010Prop45
280
     0
102
RTVSPost2010PropOp45
 70
     1
102
RTVSPost2010Prop46
 90
       50
102
RTVSPost2010PropOp46
 70
     1
102
RTVSPost2010Prop47
 90
       50
102
RTVSPost2010PropOp47
 70
     1
102
RTVSPost2010Prop48
 90
       50
102
RTVSPost2010PropOp48
 70
     1
102
RTVSPost2010Prop49
280
     0
102
RTVSPost2010PropOp49
 70
     1
102
RTVSPost2010Prop50
 90
       50
102
RTVSPost2010PropOp50
 70
     1
102
RTVSPost2010Prop51ColorIndex
 90
      256
102
RTVSPost2010Prop51ColorRGB
 90
-16777216
102
RTVSPost2010PropOp51
 70
     0
102
RTVSPost2010Prop52
140
1.0
102
RTVSPost2010PropOp52
 70
     0
102
RTVSPost2010Prop53
 90
        2
102
RTVSPost2010PropOp53
 70
     1
102
RTVSPost2010Prop54
  1
strokes_ogs.tif
102
RTVSPost2010PropOp54
 70
     1
102
RTVSPost2010Prop55
280
     0
102
RTVSPost2010PropOp55
 70
     1
102
RTVSPost2010Prop56
140
1.0
102
RTVSPost2010PropOp56
 70
     1
102
RTVSPost2010Prop57
140
1.0
102
RTVSPost2010PropOp57
 70
     1
102
RTVSPropertyOp0
 70
     1
102
RTVSPropertyOp1
 70
     1
102
RTVSPropertyOp2
 70
     1
102
RTVSPropertyOp3
 70
     1
102
RTVSPropertyOp4
 70
     1
102
RTVSPropertyOp5
 70
     1
102
RTVSPropertyOp6
 70
     1
102
RTVSPropertyOp7
 70
     1
102
RTVSPropertyOp8
 70
     1
102
RTVSPropertyOp9
 70
     1
102
RTVSPropertyOp10
 70
     1
102
RTVSPropertyOp11
 70
     1
102
RTVSPropertyOp12
 70
     1
102
RTVSPropertyOp13
 70
     1
102
RTVSPropertyOp14
 70
     1
102
RTVSPropertyOp15
 70
     1
102
RTVSPropertyOp16
 70
     1
102
RTVSPropertyOp17
 70
     1
102
RTVSPropertyOp18
 70
     1
102
RTVSPropertyOp19
 70
     1
102
RTVSPropertyOp20
 70
     1
102
RTVSPropertyOp21
 70
     1
102
RTVSPropertyOp22
 70
     1
102
RTVSPropertyOp23
 70
     1
102
RTVSPropertyOp24
 70
     1
102
RTVSPropertyOp25
 70
     1
102
RTVSPropertyOp26
 70
     1
102
RTVSPropertyOp27
 70
     1
102
RTVSPropertyOp28
 70
     1
102
RTVSPropertyOp29
 70
     1
102
RTVSPropertyOp30
 70
     1
102
RTVSPropertyOp31
 70
     1
102
RTVSPropertyOp32
 70
     1
102
RTVSPropertyOp33
 70
     1
102
RTVSPropertyOp34
 70
     1
102
RTVSPropertyOp35
 70
     1
102
RTVSPropertyOp36
 70
     1
102
RTVSPropertyOp37
 70
     1
102
RTVSPropertyOp38
 70
     1
102
RTVSPropertyOp39
 70
     1
102
RTVSPropertyOp40
 70
     1
102
RTVSPropertyOp41
 70
     1
102
RTVSPropertyOp42
 70
     1
102
RTVSPropertyOp43
 70
     1
102
RTVSPropertyOp44
 70
     1
102
RTVSPropertyOp45
 70
     1
102
RTVSPropertyOp46
 70
     1
102
RTVSPropertyOp47
 70
     1
102
RTVSPropertyOp48
 70
     1
102
RTVSPropertyOp49
 70
     1
102
RTVSPropertyOp50
 70
     1
102
RTVSPropertyOp51
 70
     0
102
RTVSPropertyOp52
 70
     0
102
RTVSPropertyOp53
 70
     1
102
RTVSPropertyOp54
 70
     1
102
RTVSPropertyOp55
 70
     1
102
RTVSPropertyOp56
 70
     1
102
RTVSPropertyOp57
 70
     1
102
RTVSPropertyOp58
 70
     1
102
RTVSPropertyOp59
 70
     1
102
RTVSPropertyOp60
 70
     1
102
RTVSPropertyOp61
 70
     1
102
RTVSPropertyOp62
 70
     1
  0
XRECORD
  5
3083
102
{ACAD_REACTORS
330
3082
102
}
330
3082
100
AcDbXrecord
280
     1
102
RTVSPost2010Prop28
280
     0
102
RTVSPost2010PropOp28
 70
     1
102
RTVSPost2010Prop29
280
     1
102
RTVSPost2010PropOp29
 70
     1
102
RTVSPost2010Prop30
280
     1
102
RTVSPost2010PropOp30
 70
     1
102
RTVSPost2010Prop31
280
     0
102
RTVSPost2010PropOp31
 70
     1
102
RTVSPost2010Prop32
280
     0
102
RTVSPost2010PropOp32
 70
     1
102
RTVSPost2010Prop33
280
     0
102
RTVSPost2010PropOp33
 70
     1
102
RTVSPost2010Prop34
280
     0
102
RTVSPost2010PropOp34
 70
     1
102
RTVSPost2010Prop35
280
     0
102
RTVSPost2010PropOp35
 70
     1
102
RTVSPost2010Prop36
280
     0
102
RTVSPost2010PropOp36
 70
     1
102
RTVSPost2010Prop37
 90
       50
102
RTVSPost2010PropOp37
 70
     1
102
RTVSPost2010Prop38
140
0.0
102
RTVSPost2010PropOp38
 70
     1
102
RTVSPost2010Prop39
140
1.0
102
RTVSPost2010PropOp39
 70
     1
102
RTVSPost2010Prop40
 90
        0
102
RTVSPost2010PropOp40
 70
     1
102
RTVSPost2010Prop41ColorIndex
 90
       18
102
RTVSPost2010Prop41ColorRGB
 90
        0
102
RTVSPost2010PropOp41
 70
     1
102
RTVSPost2010Prop42
 90
       50
102
RTVSPost2010PropOp42
 70
     1
102
RTVSPost2010Prop43
 90
        3
102
RTVSPost2010PropOp43
 70
     1
102
RTVSPost2010Prop44ColorIndex
 90
        5
102
RTVSPost2010Prop44ColorRGB
 90
      255
102
RTVSPost2010PropOp44
 70
     1
102
RTVSPost2010Prop45
280
     0
102
RTVSPost2010PropOp45
 70
     1
102
RTVSPost2010Prop46
 90
       50
102
RTVSPost2010PropOp46
 70
     1
102
RTVSPost2010Prop47
 90
       50
102
RTVSPost2010PropOp47
 70
     1
102
RTVSPost2010Prop48
 90
       50
102
RTVSPost2010PropOp48
 70
     1
102
RTVSPost2010Prop49
280
     0
102
RTVSPost2010PropOp49
 70
     1
102
RTVSPost2010Prop50
 90
       50
102
RTVSPost2010PropOp50
 70
     1
102
RTVSPost2010Prop51ColorIndex
 90
      256
102
RTVSPost2010Prop51ColorRGB
 90
-16777216
102
RTVSPost2010PropOp51
 70
     0
102
RTVSPost2010Prop52
140
1.0
102
RTVSPost2010PropOp52
 70
     0
102
RTVSPost2010Prop53
 90
        2
102
RTVSPost2010PropOp53
 70
     1
102
RTVSPost2010Prop54
  1
strokes_ogs.tif
102
RTVSPost2010PropOp54
 70
     1
102
RTVSPost2010Prop55
280
     0
102
RTVSPost2010PropOp55
 70
     1
102
RTVSPost2010Prop56
140
1.0
102
RTVSPost2010PropOp56
 70
     1
102
RTVSPost2010Prop57
140
1.0
102
RTVSPost2010PropOp57
 70
     1
102
RTVSPropertyOp0
 70
     1
102
RTVSPropertyOp1
 70
     1
102
RTVSPropertyOp2
 70
     1
102
RTVSPropertyOp3
 70
     1
102
RTVSPropertyOp4
 70
     1
102
RTVSPropertyOp5
 70
     1
102
RTVSPropertyOp6
 70
     1
102
RTVSPropertyOp7
 70
     1
102
RTVSPropertyOp8
 70
     1
102
RTVSPropertyOp9
 70
     1
102
RTVSPropertyOp10
 70
     1
102
RTVSPropertyOp11
 70
     1
102
RTVSPropertyOp12
 70
     1
102
RTVSPropertyOp13
 70
     1
102
RTVSPropertyOp14
 70
     1
102
RTVSPropertyOp15
 70
     1
102
RTVSPropertyOp16
 70
     1
102
RTVSPropertyOp17
 70
     1
102
RTVSPropertyOp18
 70
     1
102
RTVSPropertyOp19
 70
     1
102
RTVSPropertyOp20
 70
     1
102
RTVSPropertyOp21
 70
     1
102
RTVSPropertyOp22
 70
     1
102
RTVSPropertyOp23
 70
     1
102
RTVSPropertyOp24
 70
     1
102
RTVSPropertyOp25
 70
     1
102
RTVSPropertyOp26
 70
     1
102
RTVSPropertyOp27
 70
     1
102
RTVSPropertyOp28
 70
     1
102
RTVSPropertyOp29
 70
     1
102
RTVSPropertyOp30
 70
     1
102
RTVSPropertyOp31
 70
     1
102
RTVSPropertyOp32
 70
     1
102
RTVSPropertyOp33
 70
     1
102
RTVSPropertyOp34
 70
     1
102
RTVSPropertyOp35
 70
     1
102
RTVSPropertyOp36
 70
     1
102
RTVSPropertyOp37
 70
     1
102
RTVSPropertyOp38
 70
     1
102
RTVSPropertyOp39
 70
     1
102
RTVSPropertyOp40
 70
     1
102
RTVSPropertyOp41
 70
     1
102
RTVSPropertyOp42
 70
     1
102
RTVSPropertyOp43
 70
     1
102
RTVSPropertyOp44
 70
     1
102
RTVSPropertyOp45
 70
     1
102
RTVSPropertyOp46
 70
     1
102
RTVSPropertyOp47
 70
     1
102
RTVSPropertyOp48
 70
     1
102
RTVSPropertyOp49
 70
     1
102
RTVSPropertyOp50
 70
     1
102
RTVSPropertyOp51
 70
     0
102
RTVSPropertyOp52
 70
     0
102
RTVSPropertyOp53
 70
     1
102
RTVSPropertyOp54
 70
     1
102
RTVSPropertyOp55
 70
     1
102
RTVSPropertyOp56
 70
     1
102
RTVSPropertyOp57
 70
     1
102
RTVSPropertyOp58
 70
     1
102
RTVSPropertyOp59
 70
     1
102
RTVSPropertyOp60
 70
     1
102
RTVSPropertyOp61
 70
     1
102
RTVSPropertyOp62
 70
     1
  0
XRECORD
  5
3085
102
{ACAD_REACTORS
330
3084
102
}
330
3084
100
AcDbXrecord
280
     1
102
RTVSPost2010Prop28
280
     0
102
RTVSPost2010PropOp28
 70
     1
102
RTVSPost2010Prop29
280
     1
102
RTVSPost2010PropOp29
 70
     1
102
RTVSPost2010Prop30
280
     1
102
RTVSPost2010PropOp30
 70
     1
102
RTVSPost2010Prop31
280
     0
102
RTVSPost2010PropOp31
 70
     1
102
RTVSPost2010Prop32
280
     0
102
RTVSPost2010PropOp32
 70
     1
102
RTVSPost2010Prop33
280
     0
102
RTVSPost2010PropOp33
 70
     1
102
RTVSPost2010Prop34
280
     0
102
RTVSPost2010PropOp34
 70
     1
102
RTVSPost2010Prop35
280
     0
102
RTVSPost2010PropOp35
 70
     1
102
RTVSPost2010Prop36
280
     0
102
RTVSPost2010PropOp36
 70
     1
102
RTVSPost2010Prop37
 90
       50
102
RTVSPost2010PropOp37
 70
     1
102
RTVSPost2010Prop38
140
0.0
102
RTVSPost2010PropOp38
 70
     1
102
RTVSPost2010Prop39
140
1.0
102
RTVSPost2010PropOp39
 70
     1
102
RTVSPost2010Prop40
 90
        0
102
RTVSPost2010PropOp40
 70
     1
102
RTVSPost2010Prop41ColorIndex
 90
       18
102
RTVSPost2010Prop41ColorRGB
 90
        0
102
RTVSPost2010PropOp41
 70
     1
102
RTVSPost2010Prop42
 90
       50
102
RTVSPost2010PropOp42
 70
     1
102
RTVSPost2010Prop43
 90
        3
102
RTVSPost2010PropOp43
 70
     1
102
RTVSPost2010Prop44ColorIndex
 90
        5
102
RTVSPost2010Prop44ColorRGB
 90
      255
102
RTVSPost2010PropOp44
 70
     1
102
RTVSPost2010Prop45
280
     0
102
RTVSPost2010PropOp45
 70
     1
102
RTVSPost2010Prop46
 90
       50
102
RTVSPost2010PropOp46
 70
     1
102
RTVSPost2010Prop47
 90
       50
102
RTVSPost2010PropOp47
 70
     1
102
RTVSPost2010Prop48
 90
       50
102
RTVSPost2010PropOp48
 70
     1
102
RTVSPost2010Prop49
280
     0
102
RTVSPost2010PropOp49
 70
     1
102
RTVSPost2010Prop50
 90
       50
102
RTVSPost2010PropOp50
 70
     1
102
RTVSPost2010Prop51ColorIndex
 90
      256
102
RTVSPost2010Prop51ColorRGB
 90
-16777216
102
RTVSPost2010PropOp51
 70
     0
102
RTVSPost2010Prop52
140
1.0
102
RTVSPost2010PropOp52
 70
     0
102
RTVSPost2010Prop53
 90
        2
102
RTVSPost2010PropOp53
 70
     1
102
RTVSPost2010Prop54
  1
strokes_ogs.tif
102
RTVSPost2010PropOp54
 70
     1
102
RTVSPost2010Prop55
280
     0
102
RTVSPost2010PropOp55
 70
     1
102
RTVSPost2010Prop56
140
1.0
102
RTVSPost2010PropOp56
 70
     1
102
RTVSPost2010Prop57
140
1.0
102
RTVSPost2010PropOp57
 70
     1
102
RTVSPropertyOp0
 70
     1
102
RTVSPropertyOp1
 70
     1
102
RTVSPropertyOp2
 70
     1
102
RTVSPropertyOp3
 70
     1
102
RTVSPropertyOp4
 70
     1
102
RTVSPropertyOp5
 70
     1
102
RTVSPropertyOp6
 70
     1
102
RTVSPropertyOp7
 70
     1
102
RTVSPropertyOp8
 70
     1
102
RTVSPropertyOp9
 70
     1
102
RTVSPropertyOp10
 70
     1
102
RTVSPropertyOp11
 70
     1
102
RTVSPropertyOp12
 70
     1
102
RTVSPropertyOp13
 70
     1
102
RTVSPropertyOp14
 70
     1
102
RTVSPropertyOp15
 70
     1
102
RTVSPropertyOp16
 70
     1
102
RTVSPropertyOp17
 70
     1
102
RTVSPropertyOp18
 70
     1
102
RTVSPropertyOp19
 70
     1
102
RTVSPropertyOp20
 70
     1
102
RTVSPropertyOp21
 70
     1
102
RTVSPropertyOp22
 70
     1
102
RTVSPropertyOp23
 70
     1
102
RTVSPropertyOp24
 70
     1
102
RTVSPropertyOp25
 70
     1
102
RTVSPropertyOp26
 70
     1
102
RTVSPropertyOp27
 70
     1
102
RTVSPropertyOp28
 70
     1
102
RTVSPropertyOp29
 70
     1
102
RTVSPropertyOp30
 70
     1
102
RTVSPropertyOp31
 70
     1
102
RTVSPropertyOp32
 70
     1
102
RTVSPropertyOp33
 70
     1
102
RTVSPropertyOp34
 70
     1
102
RTVSPropertyOp35
 70
     1
102
RTVSPropertyOp36
 70
     1
102
RTVSPropertyOp37
 70
     1
102
RTVSPropertyOp38
 70
     1
102
RTVSPropertyOp39
 70
     1
102
RTVSPropertyOp40
 70
     1
102
RTVSPropertyOp41
 70
     1
102
RTVSPropertyOp42
 70
     1
102
RTVSPropertyOp43
 70
     1
102
RTVSPropertyOp44
 70
     1
102
RTVSPropertyOp45
 70
     1
102
RTVSPropertyOp46
 70
     1
102
RTVSPropertyOp47
 70
     1
102
RTVSPropertyOp48
 70
     1
102
RTVSPropertyOp49
 70
     1
102
RTVSPropertyOp50
 70
     1
102
RTVSPropertyOp51
 70
     0
102
RTVSPropertyOp52
 70
     0
102
RTVSPropertyOp53
 70
     1
102
RTVSPropertyOp54
 70
     1
102
RTVSPropertyOp55
 70
     1
102
RTVSPropertyOp56
 70
     1
102
RTVSPropertyOp57
 70
     1
102
RTVSPropertyOp58
 70
     1
102
RTVSPropertyOp59
 70
     1
102
RTVSPropertyOp60
 70
     1
102
RTVSPropertyOp61
 70
     1
102
RTVSPropertyOp62
 70
     1
  0
XRECORD
  5
307B
102
{ACAD_REACTORS
330
307A
102
}
330
307A
100
AcDbXrecord
280
     1
102
RTVSPost2010Prop28
280
     0
102
RTVSPost2010PropOp28
 70
     1
102
RTVSPost2010Prop29
280
     1
102
RTVSPost2010PropOp29
 70
     1
102
RTVSPost2010Prop30
280
     1
102
RTVSPost2010PropOp30
 70
     1
102
RTVSPost2010Prop31
280
     0
102
RTVSPost2010PropOp31
 70
     1
102
RTVSPost2010Prop32
280
     0
102
RTVSPost2010PropOp32
 70
     1
102
RTVSPost2010Prop33
280
     0
102
RTVSPost2010PropOp33
 70
     1
102
RTVSPost2010Prop34
280
     0
102
RTVSPost2010PropOp34
 70
     1
102
RTVSPost2010Prop35
280
     0
102
RTVSPost2010PropOp35
 70
     1
102
RTVSPost2010Prop36
280
     0
102
RTVSPost2010PropOp36
 70
     1
102
RTVSPost2010Prop37
 90
       50
102
RTVSPost2010PropOp37
 70
     1
102
RTVSPost2010Prop38
140
0.0
102
RTVSPost2010PropOp38
 70
     1
102
RTVSPost2010Prop39
140
1.0
102
RTVSPost2010PropOp39
 70
     1
102
RTVSPost2010Prop40
 90
        0
102
RTVSPost2010PropOp40
 70
     1
102
RTVSPost2010Prop41ColorIndex
 90
       18
102
RTVSPost2010Prop41ColorRGB
 90
        0
102
RTVSPost2010PropOp41
 70
     1
102
RTVSPost2010Prop42
 90
       50
102
RTVSPost2010PropOp42
 70
     1
102
RTVSPost2010Prop43
 90
        3
102
RTVSPost2010PropOp43
 70
     1
102
RTVSPost2010Prop44ColorIndex
 90
        5
102
RTVSPost2010Prop44ColorRGB
 90
      255
102
RTVSPost2010PropOp44
 70
     1
102
RTVSPost2010Prop45
280
     0
102
RTVSPost2010PropOp45
 70
     1
102
RTVSPost2010Prop46
 90
       50
102
RTVSPost2010PropOp46
 70
     1
102
RTVSPost2010Prop47
 90
       50
102
RTVSPost2010PropOp47
 70
     1
102
RTVSPost2010Prop48
 90
       50
102
RTVSPost2010PropOp48
 70
     1
102
RTVSPost2010Prop49
280
     0
102
RTVSPost2010PropOp49
 70
     1
102
RTVSPost2010Prop50
 90
       50
102
RTVSPost2010PropOp50
 70
     1
102
RTVSPost2010Prop51ColorIndex
 90
      256
102
RTVSPost2010Prop51ColorRGB
 90
-16777216
102
RTVSPost2010PropOp51
 70
     0
102
RTVSPost2010Prop52
140
1.0
102
RTVSPost2010PropOp52
 70
     0
102
RTVSPost2010Prop53
 90
        2
102
RTVSPost2010PropOp53
 70
     1
102
RTVSPost2010Prop54
  1
strokes_ogs.tif
102
RTVSPost2010PropOp54
 70
     1
102
RTVSPost2010Prop55
280
     0
102
RTVSPost2010PropOp55
 70
     1
102
RTVSPost2010Prop56
140
1.0
102
RTVSPost2010PropOp56
 70
     1
102
RTVSPost2010Prop57
140
1.0
102
RTVSPost2010PropOp57
 70
     1
102
RTVSPropertyOp0
 70
     1
102
RTVSPropertyOp1
 70
     1
102
RTVSPropertyOp2
 70
     1
102
RTVSPropertyOp3
 70
     1
102
RTVSPropertyOp4
 70
     1
102
RTVSPropertyOp5
 70
     1
102
RTVSPropertyOp6
 70
     1
102
RTVSPropertyOp7
 70
     1
102
RTVSPropertyOp8
 70
     1
102
RTVSPropertyOp9
 70
     1
102
RTVSPropertyOp10
 70
     1
102
RTVSPropertyOp11
 70
     1
102
RTVSPropertyOp12
 70
     1
102
RTVSPropertyOp13
 70
     1
102
RTVSPropertyOp14
 70
     1
102
RTVSPropertyOp15
 70
     1
102
RTVSPropertyOp16
 70
     1
102
RTVSPropertyOp17
 70
     1
102
RTVSPropertyOp18
 70
     1
102
RTVSPropertyOp19
 70
     1
102
RTVSPropertyOp20
 70
     1
102
RTVSPropertyOp21
 70
     1
102
RTVSPropertyOp22
 70
     1
102
RTVSPropertyOp23
 70
     1
102
RTVSPropertyOp24
 70
     1
102
RTVSPropertyOp25
 70
     1
102
RTVSPropertyOp26
 70
     1
102
RTVSPropertyOp27
 70
     1
102
RTVSPropertyOp28
 70
     1
102
RTVSPropertyOp29
 70
     1
102
RTVSPropertyOp30
 70
     1
102
RTVSPropertyOp31
 70
     1
102
RTVSPropertyOp32
 70
     1
102
RTVSPropertyOp33
 70
     1
102
RTVSPropertyOp34
 70
     1
102
RTVSPropertyOp35
 70
     1
102
RTVSPropertyOp36
 70
     1
102
RTVSPropertyOp37
 70
     1
102
RTVSPropertyOp38
 70
     1
102
RTVSPropertyOp39
 70
     1
102
RTVSPropertyOp40
 70
     1
102
RTVSPropertyOp41
 70
     1
102
RTVSPropertyOp42
 70
     1
102
RTVSPropertyOp43
 70
     1
102
RTVSPropertyOp44
 70
     1
102
RTVSPropertyOp45
 70
     1
102
RTVSPropertyOp46
 70
     1
102
RTVSPropertyOp47
 70
     1
102
RTVSPropertyOp48
 70
     1
102
RTVSPropertyOp49
 70
     1
102
RTVSPropertyOp50
 70
     1
102
RTVSPropertyOp51
 70
     0
102
RTVSPropertyOp52
 70
     0
102
RTVSPropertyOp53
 70
     1
102
RTVSPropertyOp54
 70
     1
102
RTVSPropertyOp55
 70
     1
102
RTVSPropertyOp56
 70
     1
102
RTVSPropertyOp57
 70
     1
102
RTVSPropertyOp58
 70
     1
102
RTVSPropertyOp59
 70
     1
102
RTVSPropertyOp60
 70
     1
102
RTVSPropertyOp61
 70
     1
102
RTVSPropertyOp62
 70
     1
  0
XRECORD
  5
306F
102
{ACAD_REACTORS
330
306E
102
}
330
306E
100
AcDbXrecord
280
     1
102
RTVSPost2010Prop28
280
     0
102
RTVSPost2010PropOp28
 70
     1
102
RTVSPost2010Prop29
280
     1
102
RTVSPost2010PropOp29
 70
     1
102
RTVSPost2010Prop30
280
     1
102
RTVSPost2010PropOp30
 70
     1
102
RTVSPost2010Prop31
280
     0
102
RTVSPost2010PropOp31
 70
     1
102
RTVSPost2010Prop32
280
     0
102
RTVSPost2010PropOp32
 70
     1
102
RTVSPost2010Prop33
280
     0
102
RTVSPost2010PropOp33
 70
     1
102
RTVSPost2010Prop34
280
     0
102
RTVSPost2010PropOp34
 70
     1
102
RTVSPost2010Prop35
280
     0
102
RTVSPost2010PropOp35
 70
     1
102
RTVSPost2010Prop36
280
     0
102
RTVSPost2010PropOp36
 70
     1
102
RTVSPost2010Prop37
 90
       50
102
RTVSPost2010PropOp37
 70
     1
102
RTVSPost2010Prop38
140
0.0
102
RTVSPost2010PropOp38
 70
     1
102
RTVSPost2010Prop39
140
1.0
102
RTVSPost2010PropOp39
 70
     1
102
RTVSPost2010Prop40
 90
        0
102
RTVSPost2010PropOp40
 70
     1
102
RTVSPost2010Prop41ColorIndex
 90
       18
102
RTVSPost2010Prop41ColorRGB
 90
        0
102
RTVSPost2010PropOp41
 70
     1
102
RTVSPost2010Prop42
 90
       50
102
RTVSPost2010PropOp42
 70
     1
102
RTVSPost2010Prop43
 90
        3
102
RTVSPost2010PropOp43
 70
     1
102
RTVSPost2010Prop44ColorIndex
 90
        5
102
RTVSPost2010Prop44ColorRGB
 90
      255
102
RTVSPost2010PropOp44
 70
     1
102
RTVSPost2010Prop45
280
     0
102
RTVSPost2010PropOp45
 70
     1
102
RTVSPost2010Prop46
 90
       50
102
RTVSPost2010PropOp46
 70
     1
102
RTVSPost2010Prop47
 90
       50
102
RTVSPost2010PropOp47
 70
     1
102
RTVSPost2010Prop48
 90
       50
102
RTVSPost2010PropOp48
 70
     1
102
RTVSPost2010Prop49
280
     0
102
RTVSPost2010PropOp49
 70
     1
102
RTVSPost2010Prop50
 90
       50
102
RTVSPost2010PropOp50
 70
     1
102
RTVSPost2010Prop51ColorIndex
 90
      256
102
RTVSPost2010Prop51ColorRGB
 90
-16777216
102
RTVSPost2010PropOp51
 70
     0
102
RTVSPost2010Prop52
140
1.0
102
RTVSPost2010PropOp52
 70
     0
102
RTVSPost2010Prop53
 90
        2
102
RTVSPost2010PropOp53
 70
     1
102
RTVSPost2010Prop54
  1
strokes_ogs.tif
102
RTVSPost2010PropOp54
 70
     1
102
RTVSPost2010Prop55
280
     0
102
RTVSPost2010PropOp55
 70
     1
102
RTVSPost2010Prop56
140
1.0
102
RTVSPost2010PropOp56
 70
     1
102
RTVSPost2010Prop57
140
1.0
102
RTVSPost2010PropOp57
 70
     1
102
RTVSPropertyOp0
 70
     1
102
RTVSPropertyOp1
 70
     1
102
RTVSPropertyOp2
 70
     1
102
RTVSPropertyOp3
 70
     1
102
RTVSPropertyOp4
 70
     1
102
RTVSPropertyOp5
 70
     1
102
RTVSPropertyOp6
 70
     1
102
RTVSPropertyOp7
 70
     1
102
RTVSPropertyOp8
 70
     1
102
RTVSPropertyOp9
 70
     1
102
RTVSPropertyOp10
 70
     1
102
RTVSPropertyOp11
 70
     1
102
RTVSPropertyOp12
 70
     1
102
RTVSPropertyOp13
 70
     1
102
RTVSPropertyOp14
 70
     1
102
RTVSPropertyOp15
 70
     1
102
RTVSPropertyOp16
 70
     1
102
RTVSPropertyOp17
 70
     1
102
RTVSPropertyOp18
 70
     1
102
RTVSPropertyOp19
 70
     1
102
RTVSPropertyOp20
 70
     1
102
RTVSPropertyOp21
 70
     1
102
RTVSPropertyOp22
 70
     1
102
RTVSPropertyOp23
 70
     1
102
RTVSPropertyOp24
 70
     1
102
RTVSPropertyOp25
 70
     1
102
RTVSPropertyOp26
 70
     1
102
RTVSPropertyOp27
 70
     1
102
RTVSPropertyOp28
 70
     1
102
RTVSPropertyOp29
 70
     1
102
RTVSPropertyOp30
 70
     1
102
RTVSPropertyOp31
 70
     1
102
RTVSPropertyOp32
 70
     1
102
RTVSPropertyOp33
 70
     1
102
RTVSPropertyOp34
 70
     1
102
RTVSPropertyOp35
 70
     1
102
RTVSPropertyOp36
 70
     1
102
RTVSPropertyOp37
 70
     1
102
RTVSPropertyOp38
 70
     1
102
RTVSPropertyOp39
 70
     1
102
RTVSPropertyOp40
 70
     1
102
RTVSPropertyOp41
 70
     1
102
RTVSPropertyOp42
 70
     1
102
RTVSPropertyOp43
 70
     1
102
RTVSPropertyOp44
 70
     1
102
RTVSPropertyOp45
 70
     1
102
RTVSPropertyOp46
 70
     1
102
RTVSPropertyOp47
 70
     1
102
RTVSPropertyOp48
 70
     1
102
RTVSPropertyOp49
 70
     1
102
RTVSPropertyOp50
 70
     1
102
RTVSPropertyOp51
 70
     0
102
RTVSPropertyOp52
 70
     0
102
RTVSPropertyOp53
 70
     1
102
RTVSPropertyOp54
 70
     1
102
RTVSPropertyOp55
 70
     1
102
RTVSPropertyOp56
 70
     1
102
RTVSPropertyOp57
 70
     1
102
RTVSPropertyOp58
 70
     1
102
RTVSPropertyOp59
 70
     1
102
RTVSPropertyOp60
 70
     1
102
RTVSPropertyOp61
 70
     1
102
RTVSPropertyOp62
 70
     1
  0
XRECORD
  5
3087
102
{ACAD_REACTORS
330
3086
102
}
330
3086
100
AcDbXrecord
280
     1
102
RTVSPost2010Prop28
280
     0
102
RTVSPost2010PropOp28
 70
     1
102
RTVSPost2010Prop29
280
     1
102
RTVSPost2010PropOp29
 70
     1
102
RTVSPost2010Prop30
280
     1
102
RTVSPost2010PropOp30
 70
     1
102
RTVSPost2010Prop31
280
     0
102
RTVSPost2010PropOp31
 70
     1
102
RTVSPost2010Prop32
280
     0
102
RTVSPost2010PropOp32
 70
     1
102
RTVSPost2010Prop33
280
     0
102
RTVSPost2010PropOp33
 70
     1
102
RTVSPost2010Prop34
280
     0
102
RTVSPost2010PropOp34
 70
     1
102
RTVSPost2010Prop35
280
     0
102
RTVSPost2010PropOp35
 70
     1
102
RTVSPost2010Prop36
280
     0
102
RTVSPost2010PropOp36
 70
     1
102
RTVSPost2010Prop37
 90
       50
102
RTVSPost2010PropOp37
 70
     1
102
RTVSPost2010Prop38
140
0.0
102
RTVSPost2010PropOp38
 70
     1
102
RTVSPost2010Prop39
140
1.0
102
RTVSPost2010PropOp39
 70
     1
102
RTVSPost2010Prop40
 90
        0
102
RTVSPost2010PropOp40
 70
     1
102
RTVSPost2010Prop41ColorIndex
 90
       18
102
RTVSPost2010Prop41ColorRGB
 90
        0
102
RTVSPost2010PropOp41
 70
     1
102
RTVSPost2010Prop42
 90
       50
102
RTVSPost2010PropOp42
 70
     1
102
RTVSPost2010Prop43
 90
        3
102
RTVSPost2010PropOp43
 70
     1
102
RTVSPost2010Prop44ColorIndex
 90
        5
102
RTVSPost2010Prop44ColorRGB
 90
      255
102
RTVSPost2010PropOp44
 70
     1
102
RTVSPost2010Prop45
280
     0
102
RTVSPost2010PropOp45
 70
     1
102
RTVSPost2010Prop46
 90
       50
102
RTVSPost2010PropOp46
 70
     1
102
RTVSPost2010Prop47
 90
       50
102
RTVSPost2010PropOp47
 70
     1
102
RTVSPost2010Prop48
 90
       50
102
RTVSPost2010PropOp48
 70
     1
102
RTVSPost2010Prop49
280
     0
102
RTVSPost2010PropOp49
 70
     1
102
RTVSPost2010Prop50
 90
       50
102
RTVSPost2010PropOp50
 70
     1
102
RTVSPost2010Prop51ColorIndex
 90
      256
102
RTVSPost2010Prop51ColorRGB
 90
-16777216
102
RTVSPost2010PropOp51
 70
     0
102
RTVSPost2010Prop52
140
1.0
102
RTVSPost2010PropOp52
 70
     0
102
RTVSPost2010Prop53
 90
        2
102
RTVSPost2010PropOp53
 70
     1
102
RTVSPost2010Prop54
  1
strokes_ogs.tif
102
RTVSPost2010PropOp54
 70
     1
102
RTVSPost2010Prop55
280
     0
102
RTVSPost2010PropOp55
 70
     1
102
RTVSPost2010Prop56
140
1.0
102
RTVSPost2010PropOp56
 70
     1
102
RTVSPost2010Prop57
140
1.0
102
RTVSPost2010PropOp57
 70
     1
102
RTVSPropertyOp0
 70
     1
102
RTVSPropertyOp1
 70
     1
102
RTVSPropertyOp2
 70
     1
102
RTVSPropertyOp3
 70
     1
102
RTVSPropertyOp4
 70
     1
102
RTVSPropertyOp5
 70
     1
102
RTVSPropertyOp6
 70
     1
102
RTVSPropertyOp7
 70
     1
102
RTVSPropertyOp8
 70
     1
102
RTVSPropertyOp9
 70
     1
102
RTVSPropertyOp10
 70
     1
102
RTVSPropertyOp11
 70
     1
102
RTVSPropertyOp12
 70
     1
102
RTVSPropertyOp13
 70
     1
102
RTVSPropertyOp14
 70
     1
102
RTVSPropertyOp15
 70
     1
102
RTVSPropertyOp16
 70
     1
102
RTVSPropertyOp17
 70
     1
102
RTVSPropertyOp18
 70
     1
102
RTVSPropertyOp19
 70
     1
102
RTVSPropertyOp20
 70
     1
102
RTVSPropertyOp21
 70
     1
102
RTVSPropertyOp22
 70
     1
102
RTVSPropertyOp23
 70
     1
102
RTVSPropertyOp24
 70
     1
102
RTVSPropertyOp25
 70
     1
102
RTVSPropertyOp26
 70
     1
102
RTVSPropertyOp27
 70
     1
102
RTVSPropertyOp28
 70
     1
102
RTVSPropertyOp29
 70
     1
102
RTVSPropertyOp30
 70
     1
102
RTVSPropertyOp31
 70
     1
102
RTVSPropertyOp32
 70
     1
102
RTVSPropertyOp33
 70
     1
102
RTVSPropertyOp34
 70
     1
102
RTVSPropertyOp35
 70
     1
102
RTVSPropertyOp36
 70
     1
102
RTVSPropertyOp37
 70
     1
102
RTVSPropertyOp38
 70
     1
102
RTVSPropertyOp39
 70
     1
102
RTVSPropertyOp40
 70
     1
102
RTVSPropertyOp41
 70
     1
102
RTVSPropertyOp42
 70
     1
102
RTVSPropertyOp43
 70
     1
102
RTVSPropertyOp44
 70
     1
102
RTVSPropertyOp45
 70
     1
102
RTVSPropertyOp46
 70
     1
102
RTVSPropertyOp47
 70
     1
102
RTVSPropertyOp48
 70
     1
102
RTVSPropertyOp49
 70
     1
102
RTVSPropertyOp50
 70
     1
102
RTVSPropertyOp51
 70
     0
102
RTVSPropertyOp52
 70
     0
102
RTVSPropertyOp53
 70
     1
102
RTVSPropertyOp54
 70
     1
102
RTVSPropertyOp55
 70
     1
102
RTVSPropertyOp56
 70
     1
102
RTVSPropertyOp57
 70
     1
102
RTVSPropertyOp58
 70
     1
102
RTVSPropertyOp59
 70
     1
102
RTVSPropertyOp60
 70
     1
102
RTVSPropertyOp61
 70
     1
102
RTVSPropertyOp62
 70
     1
  0
ENDSEC
  0
EOF
