  0
SECTION
  2
HEADER
  9
$ACADVER
  1
AC1015
  9
$ACADMAINTVER
 70
    20
  9
$DWGCODEPAGE
  3
ANSI_1252
  9
$INSBASE
 10
228.3258122068817
 20
11.58027522935536
 30
0.0
  9
$EXTMIN
 10
357.0465245463647
 20
280.0222005791637
 30
0.0
  9
$EXTMAX
 10
470.7871662473229
 20
437.4393546166335
 30
0.0
  9
$LIMMIN
 10
0.0
 20
0.0
  9
$LIMMAX
 10
420.0
 20
297.0
  9
$ORTHOMODE
 70
     0
  9
$REGENMODE
 70
     1
  9
$FILLMODE
 70
     1
  9
$QTEXTMODE
 70
     0
  9
$MIRRTEXT
 70
     1
  9
$LTSCALE
 40
0.1
  9
$ATTMODE
 70
     1
  9
$TEXTSIZE
 40
5.0
  9
$TRACEWID
 40
1.0
  9
$TEXTSTYLE
  7
STANDARD
  9
$CLAYER
  8
TEXT
  9
$CELTYPE
  6
BYLAYER
  9
$CECOLOR
 62
     7
  9
$CELTSCALE
 40
1.0
  9
$DISPSILH
 70
     0
  9
$DIMSCALE
 40
1.0
  9
$DIMASZ
 40
1.0
  9
$DIMEXO
 40
7.0
  9
$DIMDLI
 40
5.0
  9
$DIMRND
 40
0.0
  9
$DIMDLE
 40
0.0
  9
$DIMEXE
 40
2.0
  9
$DIMTP
 40
0.0
  9
$DIMTM
 40
0.0
  9
$DIMTXT
 40
2.5
  9
$DIMCEN
 40
3.0
  9
$DIMTSZ
 40
0.0
  9
$DIMTOL
 70
     0
  9
$DIMLIM
 70
     0
  9
$DIMTIH
 70
     0
  9
$DIMTOH
 70
     0
  9
$DIMSE1
 70
     0
  9
$DIMSE2
 70
     0
  9
$DIMTAD
 70
     0
  9
$DIMZIN
 70
     8
  9
$DIMBLK
  1
THICK2
  9
$DIMASO
 70
     1
  9
$DIMSHO
 70
     1
  9
$DIMPOST
  1

  9
$DIMAPOST
  1

  9
$DIMALT
 70
     0
  9
$DIMALTD
 70
     2
  9
$DIMALTF
 40
0.0394
  9
$DIMLFAC
 40
1.0
  9
$DIMTOFL
 70
     1
  9
$DIMTVP
 40
0.0
  9
$DIMTIX
 70
     0
  9
$DIMSOXD
 70
     0
  9
$DIMSAH
 70
     1
  9
$DIMBLK1
  1

  9
$DIMBLK2
  1

  9
$DIMSTYLE
  2
STANDARD
  9
$DIMCLRD
 70
     7
  9
$DIMCLRE
 70
     7
  9
$DIMCLRT
 70
     7
  9
$DIMTFAC
 40
0.8571428571428571
  9
$DIMGAP
 40
1.0
  9
$DIMJUST
 70
     0
  9
$DIMSD1
 70
     0
  9
$DIMSD2
 70
     0
  9
$DIMTOLJ
 70
     1
  9
$DIMTZIN
 70
     8
  9
$DIMALTZ
 70
     8
  9
$DIMALTTZ
 70
     8
  9
$DIMUPT
 70
     0
  9
$DIMDEC
 70
     1
  9
$DIMTDEC
 70
     1
  9
$DIMALTU
 70
     2
  9
$DIMALTTD
 70
     2
  9
$DIMTXSTY
  7
MAATVOERING
  9
$DIMAUNIT
 70
     0
  9
$DIMADEC
 70
     0
  9
$DIMALTRND
 40
0.0
  9
$DIMAZIN
 70
     0
  9
$DIMDSEP
 70
    46
  9
$DIMATFIT
 70
     3
  9
$DIMFRAC
 70
     0
  9
$DIMLDRBLK
  1
THICK2
  9
$DIMLUNIT
 70
     2
  9
$DIMLWD
 70
    -2
  9
$DIMLWE
 70
    -2
  9
$DIMTMOVE
 70
     2
  9
$LUNITS
 70
     2
  9
$LUPREC
 70
     1
  9
$SKETCHINC
 40
1.0
  9
$FILLETRAD
 40
0.0
  9
$AUNITS
 70
     0
  9
$AUPREC
 70
     0
  9
$MENU
  1
acad
  9
$ELEVATION
 40
0.0
  9
$PELEVATION
 40
0.0
  9
$THICKNESS
 40
0.0
  9
$LIMCHECK
 70
     0
  9
$CHAMFERA
 40
0.0
  9
$CHAMFERB
 40
0.0
  9
$CHAMFERC
 40
0.0
  9
$CHAMFERD
 40
0.0
  9
$SKPOLY
 70
     0
  9
$TDCREATE
 40
2454971.651379468
  9
$TDUCREATE
 40
2454971.568046135
  9
$TDUPDATE
 40
2458047.693310648
  9
$TDUUPDATE
 40
2458047.609977315
  9
$TDINDWG
 40
0.1743394329
  9
$TDUSRTIMER
 40
0.1743392477
  9
$USRTIMER
 70
     1
  9
$ANGBASE
 50
0.0
  9
$ANGDIR
 70
     0
  9
$PDMODE
 70
     3
  9
$PDSIZE
 40
0.0
  9
$PLINEWID
 40
0.0
  9
$SPLFRAME
 70
     0
  9
$SPLINETYPE
 70
     6
  9
$SPLINESEGS
 70
     8
  9
$HANDSEED
  5
2664
  9
$SURFTAB1
 70
     6
  9
$SURFTAB2
 70
     6
  9
$SURFTYPE
 70
     6
  9
$SURFU
 70
     6
  9
$SURFV
 70
     6
  9
$UCSBASE
  2

  9
$UCSNAME
  2

  9
$UCSORG
 10
0.0
 20
0.0
 30
0.0
  9
$UCSXDIR
 10
1.0
 20
0.0
 30
0.0
  9
$UCSYDIR
 10
0.0
 20
1.0
 30
0.0
  9
$UCSORTHOREF
  2

  9
$UCSORTHOVIEW
 70
     0
  9
$UCSORGTOP
 10
0.0
 20
0.0
 30
0.0
  9
$UCSORGBOTTOM
 10
0.0
 20
0.0
 30
0.0
  9
$UCSORGLEFT
 10
0.0
 20
0.0
 30
0.0
  9
$UCSORGRIGHT
 10
0.0
 20
0.0
 30
0.0
  9
$UCSORGFRONT
 10
0.0
 20
0.0
 30
0.0
  9
$UCSORGBACK
 10
0.0
 20
0.0
 30
0.0
  9
$PUCSBASE
  2

  9
$PUCSNAME
  2

  9
$PUCSORG
 10
0.0
 20
0.0
 30
0.0
  9
$PUCSXDIR
 10
1.0
 20
0.0
 30
0.0
  9
$PUCSYDIR
 10
0.0
 20
1.0
 30
0.0
  9
$PUCSORTHOREF
  2

  9
$PUCSORTHOVIEW
 70
     0
  9
$PUCSORGTOP
 10
0.0
 20
0.0
 30
0.0
  9
$PUCSORGBOTTOM
 10
0.0
 20
0.0
 30
0.0
  9
$PUCSORGLEFT
 10
0.0
 20
0.0
 30
0.0
  9
$PUCSORGRIGHT
 10
0.0
 20
0.0
 30
0.0
  9
$PUCSORGFRONT
 10
0.0
 20
0.0
 30
0.0
  9
$PUCSORGBACK
 10
0.0
 20
0.0
 30
0.0
  9
$USERI1
 70
     0
  9
$USERI2
 70
     0
  9
$USERI3
 70
     0
  9
$USERI4
 70
     0
  9
$USERI5
 70
     0
  9
$USERR1
 40
0.0
  9
$USERR2
 40
0.0
  9
$USERR3
 40
0.0
  9
$USERR4
 40
0.0
  9
$USERR5
 40
0.0
  9
$WORLDVIEW
 70
     1
  9
$SHADEDGE
 70
     3
  9
$SHADEDIF
 70
    70
  9
$TILEMODE
 70
     1
  9
$MAXACTVP
 70
    16
  9
$PINSBASE
 10
0.0
 20
0.0
 30
0.0
  9
$PLIMCHECK
 70
     0
  9
$PEXTMIN
 10
0.0
 20
0.0
 30
0.0
  9
$PEXTMAX
 10
450.0568771082567
 20
308.5802752293554
 30
0.0
  9
$PLIMMIN
 10
0.0
 20
0.0
  9
$PLIMMAX
 10
420.0
 20
297.0
  9
$UNITMODE
 70
     0
  9
$VISRETAIN
 70
     0
  9
$PLINEGEN
 70
     0
  9
$PSLTSCALE
 70
     1
  9
$TREEDEPTH
 70
  3020
  9
$CMLSTYLE
  2
STANDARD
  9
$CMLJUST
 70
     0
  9
$CMLSCALE
 40
1.0
  9
$PROXYGRAPHICS
 70
     1
  9
$MEASUREMENT
 70
     0
  9
$CELWEIGHT
370
    -1
  9
$ENDCAPS
280
     0
  9
$JOINSTYLE
280
     0
  9
$LWDISPLAY
290
     0
  9
$INSUNITS
 70
     0
  9
$HYPERLINKBASE
  1

  9
$STYLESHEET
  1
plotpen.ctb
  9
$XEDIT
290
     1
  9
$CEPSNTYPE
380
     0
  9
$PSTYLEMODE
290
     1
  9
$FINGERPRINTGUID
  2
{924C97C1-C56D-423B-9F3A-9D5F39EDB0C1}
  9
$VERSIONGUID
  2
{D59DC6FC-442F-4796-8E07-C268A440491E}
  9
$EXTNAMES
290
     1
  9
$PSVPSCALE
 40
0.0
  9
$OLESTARTUP
290
     0
  0
ENDSEC
  0
SECTION
  2
CLASSES
  0
CLASS
  1
DICTIONARYVAR
  2
AcDbDictionaryVar
  3
ObjectDBX Classes
 90
        0
280
     0
281
     0
  0
CLASS
  1
LWPOLYLINE
  2
AcDbPolyline
  3
ObjectDBX Classes
 90
        0
280
     0
281
     1
  0
CLASS
  1
HATCH
  2
AcDbHatch
  3
ObjectDBX Classes
 90
        0
280
     0
281
     1
  0
CLASS
  1
ACDBDICTIONARYWDFLT
  2
AcDbDictionaryWithDefault
  3
ObjectDBX Classes
 90
        0
280
     0
281
     0
  0
CLASS
  1
ACDBPLACEHOLDER
  2
AcDbPlaceHolder
  3
ObjectDBX Classes
 90
        0
280
     0
281
     0
  0
CLASS
  1
LAYOUT
  2
AcDbLayout
  3
ObjectDBX Classes
 90
        0
280
     0
281
     0
  0
CLASS
  1
PLOTSETTINGS
  2
AcDbPlotSettings
  3
ObjectDBX Classes
 90
        0
280
     0
281
     0
  0
CLASS
  1
TABLESTYLE
  2
AcDbTableStyle
  3
ObjectDBX Classes
 90
     2047
280
     0
281
     0
  0
CLASS
  1
SORTENTSTABLE
  2
AcDbSortentsTable
  3
ObjectDBX Classes
 90
        0
280
     0
281
     0
  0
ENDSEC
  0
SECTION
  2
TABLES
  0
TABLE
  2
VPORT
  5
8
330
0
100
AcDbSymbolTable
 70
     2
  0
VPORT
  5
265A
330
8
100
AcDbSymbolTableRecord
100
AcDbViewportTableRecord
  2
*Active
 70
     0
 10
0.0
 20
0.0
 11
1.0
 21
1.0
 12
411.6509879319726
 22
342.6908338100917
 13
0.0
 23
0.0
 14
10.0
 24
10.0
 15
0.75
 25
0.75
 16
0.0
 26
0.0
 36
1.0
 17
0.0
 27
0.0
 37
0.0
 40
236.7430874044101
 41
2.189473684210526
 42
50.0
 43
0.0
 44
0.0
 50
0.0
 51
0.0
 71
     0
 72
   100
 73
     1
 74
     0
 75
     0
 76
     0
 77
     0
 78
     0
281
     0
 65
     1
110
0.0
120
0.0
130
0.0
111
1.0
121
0.0
131
0.0
112
0.0
122
1.0
132
0.0
 79
     0
146
0.0
  0
ENDTAB
  0
TABLE
  2
LTYPE
  5
5
330
0
100
AcDbSymbolTable
 70
     3
  0
LTYPE
  5
11
330
5
100
AcDbSymbolTableRecord
100
AcDbLinetypeTableRecord
  2
BYBLOCK
 70
     0
  3

 72
    65
 73
     0
 40
0.0
  0
LTYPE
  5
12
330
5
100
AcDbSymbolTableRecord
100
AcDbLinetypeTableRecord
  2
BYLAYER
 70
     0
  3

 72
    65
 73
     0
 40
0.0
  0
LTYPE
  5
13
330
5
100
AcDbSymbolTableRecord
100
AcDbLinetypeTableRecord
  2
CONTINUOUS
 70
     0
  3
Solid line
 72
    65
 73
     0
 40
0.0
  0
LTYPE
  5
24
330
5
100
AcDbSymbolTableRecord
100
AcDbLinetypeTableRecord
  2
CENTER
 70
     0
  3
____ _ ____ _ ____ _ ____ _ ____ _ ____ _ ____ 
 72
    65
 73
     4
 40
50.8
 49
31.75
 74
     0
 49
-6.349999999999999
 74
     0
 49
6.349999999999999
 74
     0
 49
-6.349999999999999
 74
     0
  0
LTYPE
  5
25
330
5
100
AcDbSymbolTableRecord
100
AcDbLinetypeTableRecord
  2
HIDDEN
 70
     0
  3
__ __ __ __ __ __ __ __ __ __ __ __ __ __ __ __
 72
    65
 73
     2
 40
9.524999999999998
 49
6.349999999999999
 74
     0
 49
-3.174999999999999
 74
     0
  0
ENDTAB
  0
TABLE
  2
LAYER
  5
2
102
{ACAD_XDICTIONARY
360
8C5
102
}
330
0
100
AcDbSymbolTable
 70
     8
  0
LAYER
  5
E
330
2
100
AcDbSymbolTableRecord
100
AcDbLayerTableRecord
  2
0
 70
     0
 62
     7
  6
CONTINUOUS
370
    -3
390
637
  0
LAYER
  5
29
330
2
100
AcDbSymbolTableRecord
100
AcDbLayerTableRecord
  2
TEXT
 70
     0
 62
     7
  6
CONTINUOUS
370
    -3
390
637
  0
LAYER
  5
2A
330
2
100
AcDbSymbolTableRecord
100
AcDbLayerTableRecord
  2
BEMATING
 70
     0
 62
     7
  6
CONTINUOUS
370
    -3
390
637
  0
LAYER
  5
2C
330
2
100
AcDbSymbolTableRecord
100
AcDbLayerTableRecord
  2
DEFPOINTS
 70
     0
 62
     7
  6
CONTINUOUS
290
     0
370
    -3
390
637
  0
LAYER
  5
1196
330
2
100
AcDbSymbolTableRecord
100
AcDbLayerTableRecord
  2
Knauf-Cprofiel
 70
     0
 62
     7
  6
CONTINUOUS
370
    -3
390
637
  0
LAYER
  5
2305
330
2
100
AcDbSymbolTableRecord
100
AcDbLayerTableRecord
  2
CONTOUR0-18
 70
     0
 62
     1
  6
CONTINUOUS
370
    -3
390
637
  0
LAYER
  5
2306
330
2
100
AcDbSymbolTableRecord
100
AcDbLayerTableRecord
  2
CONTOUR1-35
 70
     0
 62
     2
  6
CONTINUOUS
370
    -3
390
637
  0
LAYER
  5
2307
330
2
100
AcDbSymbolTableRecord
100
AcDbLayerTableRecord
  2
BEMATING-10
 70
     0
 62
     7
  6
CONTINUOUS
370
    -3
390
637
  0
ENDTAB
  0
TABLE
  2
STYLE
  5
3
330
0
100
AcDbSymbolTable
 70
     3
  0
STYLE
  5
F
330
3
100
AcDbSymbolTableRecord
100
AcDbTextStyleTableRecord
  2
STANDARD
 70
     0
 40
3.5
 41
1.0
 50
0.0
 71
     0
 42
5.0
  3
swiss.ttf
  4

1001
ACAD
1000
Swis721 BT
1071
       34
  0
STYLE
  5
527
330
3
100
AcDbSymbolTableRecord
100
AcDbTextStyleTableRecord
  2
MAATVOERING
 70
     0
 40
2.5
 41
1.0
 50
0.0
 71
     0
 42
5.0
  3
ROMANS.SHX
  4

  0
STYLE
  5
206A
330
3
100
AcDbSymbolTableRecord
100
AcDbTextStyleTableRecord
  2
DAX
 70
     0
 40
3.5
 41
1.0
 50
0.0
 71
     0
 42
3.5
  3

  4

1001
ACAD
1000
Dax-Regular
1071
        2
  0
ENDTAB
  0
TABLE
  2
VIEW
  5
6
330
0
100
AcDbSymbolTable
 70
     0
  0
ENDTAB
  0
TABLE
  2
UCS
  5
7
330
0
100
AcDbSymbolTable
 70
     0
  0
ENDTAB
  0
TABLE
  2
APPID
  5
9
330
0
100
AcDbSymbolTable
 70
    13
  0
APPID
  5
10
330
9
100
AcDbSymbolTableRecord
100
AcDbRegAppTableRecord
  2
ACAD
 70
     0
  0
APPID
  5
66B
330
9
100
AcDbSymbolTableRecord
100
AcDbRegAppTableRecord
  2
CONTENTTABDATA
 70
     0
  0
APPID
  5
66C
330
9
100
AcDbSymbolTableRecord
100
AcDbRegAppTableRecord
  2
CONTENTCURRENTTAB
 70
     0
  0
APPID
  5
66D
330
9
100
AcDbSymbolTableRecord
100
AcDbRegAppTableRecord
  2
CONTENTBLOCKDESCRIPTION
 70
     0
  0
APPID
  5
8BE
330
9
100
AcDbSymbolTableRecord
100
AcDbRegAppTableRecord
  2
ACAD_PSEXT
 70
     0
  0
APPID
  5
8BF
330
9
100
AcDbSymbolTableRecord
100
AcDbRegAppTableRecord
  2
GENIUS_GENODEF_13
 70
     0
  0
APPID
  5
8C0
330
9
100
AcDbSymbolTableRecord
100
AcDbRegAppTableRecord
  2
GENIUS_GENOBJ-N-FIL_13
 70
     0
  0
APPID
  5
8C1
330
9
100
AcDbSymbolTableRecord
100
AcDbRegAppTableRecord
  2
ACAD_DSTYLE_DIMEXT_LENGTH
 70
     0
  0
APPID
  5
8C2
330
9
100
AcDbSymbolTableRecord
100
AcDbRegAppTableRecord
  2
ACAD_DSTYLE_DIMEXT_ENABLED
 70
     0
  0
APPID
  5
8C3
330
9
100
AcDbSymbolTableRecord
100
AcDbRegAppTableRecord
  2
ACAD_DSTYLE_DIMJOGGED_JOGANGLE_SYMBOL
 70
     0
  0
APPID
  5
8C4
330
9
100
AcDbSymbolTableRecord
100
AcDbRegAppTableRecord
  2
ACAD_DSTYLE_DIMARC_LENGTH_SYMBOL
 70
     0
  0
APPID
  5
960
330
9
100
AcDbSymbolTableRecord
100
AcDbRegAppTableRecord
  2
ACAD_EXEMPT_FROM_CAD_STANDARDS
 70
     0
  0
APPID
  5
14F9
330
9
100
AcDbSymbolTableRecord
100
AcDbRegAppTableRecord
  2
GENIUS_GENOBJ-N-CEN_13
 70
     0
  0
ENDTAB
  0
TABLE
  2
DIMSTYLE
  5
A
330
0
100
AcDbSymbolTable
 70
     1
100
AcDbDimStyleTable
 71
     1
340
524
  0
DIMSTYLE
105
524
102
{ACAD_REACTORS
330
235B
330
235C
330
235D
330
235E
330
238F
330
2390
330
23A4
330
23A6
330
23A7
102
}
330
A
100
AcDbSymbolTableRecord
100
AcDbDimStyleTableRecord
  2
STANDARD
 70
     0
340
F
  0
ENDTAB
  0
TABLE
  2
BLOCK_RECORD
  5
1
330
0
100
AcDbSymbolTable
 70
    22
  0
BLOCK_RECORD
  5
17
102
{ACAD_XDICTIONARY
360
98E
102
}
330
1
100
AcDbSymbolTableRecord
100
AcDbBlockTableRecord
  2
*MODEL_SPACE
340
63A
  0
BLOCK_RECORD
  5
14
330
1
100
AcDbSymbolTableRecord
100
AcDbBlockTableRecord
  2
*PAPER_SPACE
340
63B
  0
BLOCK_RECORD
  5
1C
330
1
100
AcDbSymbolTableRecord
100
AcDbBlockTableRecord
  2
THICK2
340
0
102
{BLKREFS
331
2213
331
2214
331
221D
331
221E
331
22C8
331
22C9
331
22D4
331
22D5
331
22E3
331
22E4
331
22F1
331
22F2
331
22FF
331
2300
331
22B4
331
22B5
331
22A7
331
22A8
331
229B
331
229C
331
228E
331
228F
331
25F8
331
25F9
331
2601
331
2602
331
260B
331
260C
331
2617
331
2618
331
2622
331
2623
331
262B
331
262C
331
2635
331
2636
331
2641
331
2642
331
264C
331
264D
102
}
  0
BLOCK_RECORD
  5
22BB
330
1
100
AcDbSymbolTableRecord
100
AcDbBlockTableRecord
  2
Band-Nr6150
340
0
102
{BLKREFS
331
2370
102
}
  0
BLOCK_RECORD
  5
23A8
330
1
100
AcDbSymbolTableRecord
100
AcDbBlockTableRecord
  2
*D13
340
0
  0
BLOCK_RECORD
  5
23B5
330
1
100
AcDbSymbolTableRecord
100
AcDbBlockTableRecord
  2
*D14
340
0
  0
BLOCK_RECORD
  5
23C2
330
1
100
AcDbSymbolTableRecord
100
AcDbBlockTableRecord
  2
*D15
340
0
  0
BLOCK_RECORD
  5
23CE
330
1
100
AcDbSymbolTableRecord
100
AcDbBlockTableRecord
  2
*D16
340
0
  0
BLOCK_RECORD
  5
23DB
330
1
100
AcDbSymbolTableRecord
100
AcDbBlockTableRecord
  2
*D17
340
0
  0
BLOCK_RECORD
  5
23E7
330
1
100
AcDbSymbolTableRecord
100
AcDbBlockTableRecord
  2
*D18
340
0
  0
BLOCK_RECORD
  5
23F4
330
1
100
AcDbSymbolTableRecord
100
AcDbBlockTableRecord
  2
*D19
340
0
  0
BLOCK_RECORD
  5
2402
330
1
100
AcDbSymbolTableRecord
100
AcDbBlockTableRecord
  2
*D20
340
0
  0
BLOCK_RECORD
  5
2410
330
1
100
AcDbSymbolTableRecord
100
AcDbBlockTableRecord
  2
*D21
340
0
  0
ENDTAB
  0
ENDSEC
  0
SECTION
  2
BLOCKS
  0
BLOCK
  5
32
330
17
100
AcDbEntity
  8
0
100
AcDbBlockBegin
  2
*MODEL_SPACE
 70
     0
 10
0.0
 20
0.0
 30
0.0
  3
*MODEL_SPACE
  1

  0
ENDBLK
  5
33
330
17
100
AcDbEntity
  8
0
100
AcDbBlockEnd
  0
BLOCK
  5
30
330
14
100
AcDbEntity
 67
     1
  8
0
100
AcDbBlockBegin
  2
*PAPER_SPACE
 70
     0
 10
0.0
 20
0.0
 30
0.0
  3
*PAPER_SPACE
  1

  0
ENDBLK
  5
31
330
14
100
AcDbEntity
 67
     1
  8
0
100
AcDbBlockEnd
  0
BLOCK
  5
36
330
1C
100
AcDbEntity
  8
0
100
AcDbBlockBegin
  2
THICK2
 70
     0
 10
0.0
 20
0.0
 30
0.0
  3
THICK2
  1

  0
LINE
  5
37
330
1C
100
AcDbEntity
  8
BEMATING
 62
     7
100
AcDbLine
 10
-1.999994999999998
 20
0.0
 30
0.0
 11
1.999994999999998
 21
0.0
 31
0.0
  0
LINE
  5
38
330
1C
100
AcDbEntity
  8
BEMATING
 62
     9
100
AcDbLine
 10
-0.7954951288348724
 20
-0.7954951288348298
 30
0.0
 11
0.7954951288348724
 21
0.7954951288348298
 31
0.0
  0
ENDBLK
  5
39
330
1C
100
AcDbEntity
  8
0
100
AcDbBlockEnd
  0
BLOCK
  5
22BC
330
22BB
100
AcDbEntity
  8
0
100
AcDbBlockBegin
  2
Band-Nr6150
 70
     0
 10
0.0
 20
0.0
 30
0.0
  3
Band-Nr6150
  1

  0
LWPOLYLINE
  5
22BD
102
{ACAD_REACTORS
330
22BE
102
}
330
22BB
100
AcDbEntity
  8
BEMATING
100
AcDbPolyline
 90
       24
 70
     1
 43
0.0
 10
-12.03507063814075
 20
9.196365927771012
 42
0.822561696036945
 10
-11.83254243528839
 20
8.64356516654584
 10
-10.98272426249835
 20
8.818274237361265
 10
-10.98272426249835
 20
3.874463729690546
 10
-12.10433304133883
 20
3.000756379146309
 42
0.7467354177837918
 10
-12.00902121021116
 20
2.678989029755825
 10
-10.98272426249835
 20
2.663885443019694
 10
-10.98272426249835
 20
-0.7855720935323234
 42
-0.2039214600742718
 10
-11.13604372468879
 20
-1.145867256841597
 10
-12.12341075513134
 20
-2.091996491656445
 42
0.8105301734172094
 10
-11.91633451134228
 20
-2.42405308113723
 10
-11.81729979747277
 20
-2.389493115431264
 42
-0.1645000437529372
 10
-10.14277065424224
 20
-2.200138153874021
 10
-2.837095203016815
 20
-3.83085398618563
 42
0.066114939775187
 10
-1.989975867825251
 20
-3.855402709345426
 42
0.2991121552934865
 10
1.87170991536368
 20
-0.6579606873311832
 42
0.1590275267653622
 10
1.773517343286584
 20
0.3852595826937204
 42
0.3764163398999706
 10
1.533038257636235
 20
0.493609298789238
 10
0.1161567141507476
 20
0.0150636731954137
 42
-0.3762126752200714
 10
-2.699029875339419
 20
1.809898201858345
 10
-2.979024571793161
 20
7.899734156221256
 10
-2.357028480922281
 20
7.724112905827951
 42
0.7987947825966828
 10
-2.150085843657279
 20
8.33104348005304
 42
0.1245897451608651
 10
-9.423894123268865
 20
10.13883319494357
 42
0.1623187278905707
  0
HATCH
  5
22BE
330
22BB
100
AcDbEntity
  8
CONTOUR0-18
100
AcDbHatch
 10
0.0
 20
0.0
 30
0.0
210
0.0
220
0.0
230
1.0
  2
GRASS
 70
     0
 71
     1
 91
        3
 92
        7
 72
     1
 73
     1
 93
       24
 10
-2.979024571793162
 20
7.899734156221256
 42
0.0
 10
-2.357028480922281
 20
7.724112905827951
 42
0.7987947825966819
 10
-2.150085843657279
 20
8.33104348005304
 42
0.1245897451608651
 10
-9.423894123268865
 20
10.13883319494357
 42
0.1623187278905706
 10
-12.03507063814075
 20
9.196365927771012
 42
0.8225616960369496
 10
-11.83254243528838
 20
8.64356516654584
 42
0.0
 10
-10.98272426249835
 20
8.818274237361265
 42
0.0
 10
-10.98272426249835
 20
3.874463729690546
 42
0.0
 10
-12.1280030523188
 20
2.982317986927199
 42
0.6712008953479312
 10
-12.01417089981256
 20
2.679064815602926
 42
0.0
 10
-10.98272426249835
 20
2.663885443019694
 42
0.0
 10
-10.98272426249835
 20
-0.7855720935323234
 42
-0.2049995638018497
 10
-11.13753808616536
 20
-1.147299205688152
 42
0.0
 10
-12.12341075513134
 20
-2.091996491656445
 42
0.7995616797525292
 10
-11.92136127850508
 20
-2.425807263019224
 42
0.0
 10
-11.81729979747277
 20
-2.389493115431264
 42
-0.1676514273620651
 10
-10.11127826583071
 20
-2.207167638926136
 42
0.0
 10
-2.837095203016815
 20
-3.83085398618563
 42
0.066114939775187
 10
-1.989975867825251
 20
-3.855402709345426
 42
0.2991121552934865
 10
1.87170991536368
 20
-0.6579606873311832
 42
0.1590275267653622
 10
1.773517343286584
 20
0.3852595826937204
 42
0.3764163398999712
 10
1.533038257636234
 20
0.4936092987892378
 42
0.0
 10
0.1161567141507476
 20
0.0150636731954137
 42
-0.3762126752200713
 10
-2.699029875339419
 20
1.809898201858343
 42
0.0
 97
        1
330
22BD
 92
       22
 72
     1
 73
     1
 93
       14
 10
-6.516911080858591
 20
3.236800527257287
 42
-0.2360679775002735
 10
-6.591331921612237
 20
3.286414421092899
 42
0.0
 10
-6.665752762365883
 20
3.416650892411666
 42
0.500000000000097
 10
-6.824517222640253
 20
3.436496449945821
 42
0.0
 10
-6.928706399694902
 20
3.32858623085292
 42
-0.243584803692578
 10
-7.015865859847614
 20
3.299210605063977
 42
0.0
 10
-9.669934682875037
 20
3.669359645092868
 42
-0.3782424518883233
 10
-9.932724262498396
 20
3.967043008106998
 42
0.0
 10
-9.932724262498396
 20
8.401415768091965
 42
-0.4135048278400001
 10
-9.433934449940151
 20
8.901414303536284
 42
-0.0849517233516558
 10
-4.328650261097047
 20
8.243881902546888
 42
-0.3316728536074946
 10
-3.971518477043218
 20
7.764727780293924
 42
0.0
 10
-3.786967167977524
 20
3.04551677866311
 42
-0.4823116593732201
 10
-3.958719949345167
 20
2.885456299310245
 42
0.0
 97
        1
330
22BF
 92
       22
 72
     1
 73
     1
 93
       10
 10
-3.961407407853585
 20
1.877965516015706
 42
-0.3823944314809904
 10
-3.786235406258811
 20
1.676608190840512
 42
0.4552489077013692
 10
0.3548482293435912
 20
-0.8468197585588074
 42
-0.6319644469852688
 10
0.6183987586691729
 20
-1.081394757213615
 42
-0.2791002516938485
 10
-2.195372379585012
 20
-2.978214641504919
 42
-0.0278583667188072
 10
-2.617065430905086
 20
-2.953071966354983
 42
0.0
 10
-9.474287521663001
 20
-1.462963370272404
 42
-0.3015521592859336
 10
-9.932724262498396
 20
-0.7719562314488258
 42
0.0
 10
-9.932724262498396
 20
2.439550124837637
 42
-0.4583896795937123
 10
-9.674447994945621
 20
2.662075831257645
 42
0.0
 97
        1
330
22C0
 75
     0
 76
     1
 52
0.0
 41
0.58
 77
     0
 78
     3
 53
90.0
 43
-132.0738136319606
 44
-130.3227156093011
 45
-0.41012193298
 46
0.41012193298
 79
     2
 49
0.10875
 49
-0.7114938665399999
 53
45.0
 43
-132.0738136319606
 44
-130.3227156093011
 45
-0.4101219330881975
 46
0.4101219330881976
 79
     2
 49
0.10875
 49
-0.47125
 53
135.0
 43
-132.0738136319606
 44
-130.3227156093011
 45
-0.4101219330881976
 46
-0.4101219330881975
 79
     2
 49
0.10875
 49
-0.47125
 47
0.0448918866780854
 98
        3
 10
-5.189863374340191
 20
2.56511015622226
 10
-5.189863374340191
 20
2.56511015622226
 10
-5.189863374340191
 20
2.56511015622226
  0
LWPOLYLINE
  5
22BF
102
{ACAD_REACTORS
330
22BE
102
}
330
22BB
100
AcDbEntity
  8
BEMATING
100
AcDbPolyline
 90
       14
 70
     1
 43
0.0
 10
-9.932724262498396
 20
8.401415768091965
 10
-9.932724262498396
 20
3.967043008106998
 42
0.3782424518883232
 10
-9.669934682875037
 20
3.669359645092868
 10
-7.013050019214489
 20
3.298817894559192
 42
0.2360679774992166
 10
-6.928706399694902
 20
3.32858623085292
 10
-6.824517222640253
 20
3.436496449945821
 42
-0.5000000000000969
 10
-6.665752762365883
 20
3.416650892411666
 10
-6.591331921612237
 20
3.286414421092899
 42
0.2360679775002735
 10
-6.516911080858591
 20
3.236800527257287
 10
-3.95511428579357
 20
2.88496109429559
 42
0.451123492285309
 10
-3.786509075605408
 20
3.033802775802882
 10
-3.971518477043218
 20
7.764727780293924
 42
0.3316728536076049
 10
-4.328650261097237
 20
8.243881902546945
 42
0.0849517233516525
 10
-9.433934449940153
 20
8.901414303536284
 42
0.4135048278399993
  0
LWPOLYLINE
  5
22C0
102
{ACAD_REACTORS
330
22BE
102
}
330
22BB
100
AcDbEntity
  8
BEMATING
100
AcDbPolyline
 90
       10
 70
     1
 43
0.0
 10
-9.932724262498396
 20
2.439550124837637
 10
-9.932724262498396
 20
-0.7719562314488258
 42
0.3015521592859336
 10
-9.474287521663001
 20
-1.462963370272404
 10
-2.617065430905086
 20
-2.953071966354983
 42
0.0278583667188065
 10
-2.195372379585023
 20
-2.978214641504919
 42
0.2791002516938494
 10
0.6183987586691729
 20
-1.081394757213615
 42
0.6319644469852754
 10
0.3548482293435882
 20
-0.8468197585588086
 42
-0.4552489077013689
 10
-3.786235406258811
 20
1.676608190840511
 42
0.3823944314809918
 10
-3.961407407853585
 20
1.877965516015706
 10
-9.679816447215699
 20
2.662812647098121
 42
0.4511234922852938
  0
ENDBLK
  5
22C1
330
22BB
100
AcDbEntity
  8
0
100
AcDbBlockEnd
  0
BLOCK
  5
23B3
330
23A8
100
AcDbEntity
  8
0
 62
     7
100
AcDbBlockBegin
  2
*D13
 70
     1
 10
0.0
 20
0.0
 30
0.0
  3
*D13
  1

  0
LINE
  5
2607
330
23A8
100
AcDbEntity
  8
0
 62
     7
370
    -2
100
AcDbLine
 10
399.0571191357682
 20
397.1745481475701
 30
0.0
 11
389.0571191357683
 21
397.1745481475701
 31
0.0
  0
LINE
  5
2608
330
23A8
100
AcDbEntity
  8
0
 62
     7
370
    -2
100
AcDbLine
 10
399.0571191357682
 20
291.1745481475701
 30
0.0
 11
389.0571191357682
 21
291.1745481475701
 31
0.0
  0
LINE
  5
2609
330
23A8
100
AcDbEntity
  8
0
 62
     7
370
    -2
100
AcDbLine
 10
391.0571191357682
 20
396.1745481475702
 30
0.0
 11
391.0571191357682
 21
347.2578814809034
 31
0.0
  0
LINE
  5
260A
330
23A8
100
AcDbEntity
  8
0
 62
     7
370
    -2
100
AcDbLine
 10
391.0571191357682
 20
292.1745481475701
 30
0.0
 11
391.0571191357682
 21
341.0912148142368
 31
0.0
  0
INSERT
  5
260B
330
23A8
100
AcDbEntity
  8
0
 62
     7
370
    -2
100
AcDbBlockReference
  2
THICK2
 10
391.0571191357682
 20
397.1745481475701
 30
0.0
 50
90.0
  0
INSERT
  5
260C
330
23A8
100
AcDbEntity
  8
0
 62
     7
370
    -2
100
AcDbBlockReference
  2
THICK2
 10
391.0571191357682
 20
291.1745481475701
 30
0.0
 50
270.0
  0
MTEXT
  5
260D
330
23A8
100
AcDbEntity
  8
0
 62
     7
100
AcDbMText
 10
391.0571191357681
 20
344.1745481475702
 30
0.0
 40
2.5
 41
0.0
 71
     5
 72
     1
  1
\A1;PB
  7
MAATVOERING
 11
0.0000000000000001
 21
1.0
 31
0.0
 73
     1
 44
1.0
1001
ACAD
1000
MTEXTBEGIN
1070
    73
1070
     1
1070
    44
1040
1.0
1070
    74
1070
     0
1000
MTEXTEND
  0
POINT
  5
260E
330
23A8
100
AcDbEntity
  8
DEFPOINTS
 62
     0
100
AcDbPoint
 10
406.0571191357682
 20
397.1745481475701
 30
0.0
  0
POINT
  5
260F
330
23A8
100
AcDbEntity
  8
DEFPOINTS
 62
     0
100
AcDbPoint
 10
406.0571191357682
 20
291.1745481475701
 30
0.0
  0
POINT
  5
2610
330
23A8
100
AcDbEntity
  8
DEFPOINTS
 62
     0
100
AcDbPoint
 10
391.0571191357682
 20
291.1745481475701
 30
0.0
  0
ENDBLK
  5
23B4
330
23A8
100
AcDbEntity
  8
0
 62
     7
100
AcDbBlockEnd
  0
BLOCK
  5
23C0
330
23B5
100
AcDbEntity
  8
0
 62
     7
100
AcDbBlockBegin
  2
*D14
 70
     1
 10
0.0
 20
0.0
 30
0.0
  3
*D14
  1

  0
LINE
  5
2627
330
23B5
100
AcDbEntity
  8
0
 62
     7
370
    -2
100
AcDbLine
 10
465.7871662473229
 20
290.6745481475701
 30
0.0
 11
470.7871662473229
 21
290.6745481475701
 31
0.0
  0
LINE
  5
2628
330
23B5
100
AcDbEntity
  8
0
 62
     7
370
    -2
100
AcDbLine
 10
465.7871662473229
 20
338.6745481475701
 30
0.0
 11
470.7871662473229
 21
338.6745481475701
 31
0.0
  0
LINE
  5
2629
330
23B5
100
AcDbEntity
  8
0
 62
     7
370
    -2
100
AcDbLine
 10
468.7871662473229
 20
291.6745481475701
 30
0.0
 11
468.7871662473229
 21
311.6507386237606
 31
0.0
  0
LINE
  5
262A
330
23B5
100
AcDbEntity
  8
0
 62
     7
370
    -2
100
AcDbLine
 10
468.7871662473229
 20
337.6745481475702
 30
0.0
 11
468.7871662473229
 21
317.6983576713797
 31
0.0
  0
INSERT
  5
262B
330
23B5
100
AcDbEntity
  8
0
 62
     7
370
    -2
100
AcDbBlockReference
  2
THICK2
 10
468.7871662473229
 20
290.6745481475701
 30
0.0
 50
270.0
  0
INSERT
  5
262C
330
23B5
100
AcDbEntity
  8
0
 62
     7
370
    -2
100
AcDbBlockReference
  2
THICK2
 10
468.7871662473229
 20
338.6745481475701
 30
0.0
 50
90.0
  0
MTEXT
  5
262D
330
23B5
100
AcDbEntity
  8
0
 62
     7
100
AcDbMText
 10
468.7871662473228
 20
314.6745481475702
 30
0.0
 40
2.5
 41
0.0
 71
     5
 72
     1
  1
\A1;48
  7
MAATVOERING
 11
0.0000000000000001
 21
1.0
 31
0.0
 73
     1
 44
1.0
1001
ACAD
1000
MTEXTBEGIN
1070
    73
1070
     1
1070
    44
1040
1.0
1070
    74
1070
     0
1000
MTEXTEND
  0
POINT
  5
262E
330
23B5
100
AcDbEntity
  8
DEFPOINTS
 62
     0
100
AcDbPoint
 10
458.7871662473229
 20
290.6745481475701
 30
0.0
  0
POINT
  5
262F
330
23B5
100
AcDbEntity
  8
DEFPOINTS
 62
     0
100
AcDbPoint
 10
458.7871662473229
 20
338.6745481475701
 30
0.0
  0
POINT
  5
2630
330
23B5
100
AcDbEntity
  8
DEFPOINTS
 62
     0
100
AcDbPoint
 10
468.7871662473229
 20
338.6745481475701
 30
0.0
  0
ENDBLK
  5
23C1
330
23B5
100
AcDbEntity
  8
0
 62
     7
100
AcDbBlockEnd
  0
BLOCK
  5
23CC
330
23C2
100
AcDbEntity
  8
0
 62
     7
100
AcDbBlockBegin
  2
*D15
 70
     1
 10
0.0
 20
0.0
 30
0.0
  3
*D15
  1

  0
LINE
  5
25F4
330
23C2
100
AcDbEntity
  8
0
 62
     7
370
    -2
100
AcDbLine
 10
439.7871662473229
 20
287.1689505065029
 30
0.0
 11
439.7871662473229
 21
282.6689505065029
 31
0.0
  0
LINE
  5
25F5
330
23C2
100
AcDbEntity
  8
0
 62
     7
370
    -2
100
AcDbLine
 10
443.7871662473229
 20
287.1689505065029
 30
0.0
 11
443.7871662473229
 21
282.6689505065029
 31
0.0
  0
LINE
  5
25F6
330
23C2
100
AcDbEntity
  8
0
 62
     7
370
    -2
100
AcDbLine
 10
440.7871662473229
 20
284.6689505065029
 30
0.0
 11
442.7871662473229
 21
284.6689505065029
 31
0.0
  0
MTEXT
  5
25F7
330
23C2
100
AcDbEntity
  8
0
 62
     7
100
AcDbMText
 10
442.1567730422877
 20
281.2722005791637
 30
0.0
 40
2.5
 41
0.0
 71
     5
 72
     1
  1
\A1;4
  7
MAATVOERING
 73
     1
 44
1.0
1001
ACAD
1000
MTEXTBEGIN
1070
    73
1070
     1
1070
    44
1040
1.0
1070
    74
1070
     0
1000
MTEXTEND
  0
INSERT
  5
25F8
330
23C2
100
AcDbEntity
  8
0
 62
     7
370
    -2
100
AcDbBlockReference
  2
THICK2
 10
439.7871662473229
 20
284.6689505065029
 30
0.0
 50
180.0
  0
INSERT
  5
25F9
330
23C2
100
AcDbEntity
  8
0
 62
     7
370
    -2
100
AcDbBlockReference
  2
THICK2
 10
443.7871662473229
 20
284.6689505065029
 30
0.0
  0
POINT
  5
25FA
330
23C2
100
AcDbEntity
  8
DEFPOINTS
 62
     0
100
AcDbPoint
 10
439.7871662473229
 20
294.168950506503
 30
0.0
  0
POINT
  5
25FB
330
23C2
100
AcDbEntity
  8
DEFPOINTS
 62
     0
100
AcDbPoint
 10
443.7871662473229
 20
294.168950506503
 30
0.0
  0
POINT
  5
25FC
330
23C2
100
AcDbEntity
  8
DEFPOINTS
 62
     0
100
AcDbPoint
 10
443.7871662473229
 20
284.6689505065029
 30
0.0
  0
ENDBLK
  5
23CD
330
23C2
100
AcDbEntity
  8
0
 62
     7
100
AcDbBlockEnd
  0
BLOCK
  5
23D9
330
23CE
100
AcDbEntity
  8
0
 62
     7
100
AcDbBlockBegin
  2
*D16
 70
     1
 10
0.0
 20
0.0
 30
0.0
  3
*D16
  1

  0
LINE
  5
2631
330
23CE
100
AcDbEntity
  8
0
 62
     7
370
    -2
100
AcDbLine
 10
443.7871662473229
 20
287.1689505065029
 30
0.0
 11
443.7871662473229
 21
282.6689505065029
 31
0.0
  0
LINE
  5
2632
330
23CE
100
AcDbEntity
  8
0
 62
     7
370
    -2
100
AcDbLine
 10
458.7871662473229
 20
287.1689505065029
 30
0.0
 11
458.7871662473229
 21
282.6689505065029
 31
0.0
  0
LINE
  5
2633
330
23CE
100
AcDbEntity
  8
0
 62
     7
370
    -2
100
AcDbLine
 10
444.7871662473229
 20
284.6689505065029
 30
0.0
 11
448.4419281520849
 21
284.6689505065029
 31
0.0
  0
LINE
  5
2634
330
23CE
100
AcDbEntity
  8
0
 62
     7
370
    -2
100
AcDbLine
 10
457.7871662473229
 20
284.6689505065029
 30
0.0
 11
454.132404342561
 21
284.6689505065029
 31
0.0
  0
INSERT
  5
2635
330
23CE
100
AcDbEntity
  8
0
 62
     7
370
    -2
100
AcDbBlockReference
  2
THICK2
 10
443.7871662473229
 20
284.6689505065029
 30
0.0
 50
180.0
  0
INSERT
  5
2636
330
23CE
100
AcDbEntity
  8
0
 62
     7
370
    -2
100
AcDbBlockReference
  2
THICK2
 10
458.7871662473229
 20
284.6689505065029
 30
0.0
  0
MTEXT
  5
2637
330
23CE
100
AcDbEntity
  8
0
 62
     7
100
AcDbMText
 10
451.2871662473229
 20
284.6689505065029
 30
0.0
 40
2.5
 41
0.0
 71
     5
 72
     1
  1
\A1;15
  7
MAATVOERING
 73
     1
 44
1.0
1001
ACAD
1000
MTEXTBEGIN
1070
    73
1070
     1
1070
    44
1040
1.0
1070
    74
1070
     0
1000
MTEXTEND
  0
POINT
  5
2638
330
23CE
100
AcDbEntity
  8
DEFPOINTS
 62
     0
100
AcDbPoint
 10
443.7871662473229
 20
294.168950506503
 30
0.0
  0
POINT
  5
2639
330
23CE
100
AcDbEntity
  8
DEFPOINTS
 62
     0
100
AcDbPoint
 10
458.7871662473229
 20
294.168950506503
 30
0.0
  0
POINT
  5
263A
330
23CE
100
AcDbEntity
  8
DEFPOINTS
 62
     0
100
AcDbPoint
 10
458.7871662473229
 20
284.6689505065029
 30
0.0
  0
ENDBLK
  5
23DA
330
23CE
100
AcDbEntity
  8
0
 62
     7
100
AcDbBlockEnd
  0
BLOCK
  5
23E5
330
23DB
100
AcDbEntity
  8
0
 62
     7
100
AcDbBlockBegin
  2
*D17
 70
     1
 10
0.0
 20
0.0
 30
0.0
  3
*D17
  1

  0
LINE
  5
2646
330
23DB
100
AcDbEntity
  8
0
 62
     7
370
    -2
100
AcDbLine
 10
454.7871662473229
 20
399.6512103227606
 30
0.0
 11
454.7871662473229
 21
404.6512103227605
 31
0.0
  0
LINE
  5
2647
330
23DB
100
AcDbEntity
  8
0
 62
     7
370
    -2
100
AcDbLine
 10
458.7871662473229
 20
399.6512103227605
 30
0.0
 11
458.7871662473229
 21
404.6512103227605
 31
0.0
  0
LINE
  5
2648
330
23DB
100
AcDbEntity
  8
0
 62
     7
370
    -2
100
AcDbLine
 10
453.7871662473229
 20
402.6512103227605
 30
0.0
 11
452.7871662473229
 21
402.6512103227605
 31
0.0
  0
LINE
  5
2649
330
23DB
100
AcDbEntity
  8
0
 62
     7
370
    -2
100
AcDbLine
 10
459.7871662473229
 20
402.6512103227605
 30
0.0
 11
460.7871662473229
 21
402.6512103227605
 31
0.0
  0
LINE
  5
264A
330
23DB
100
AcDbEntity
  8
0
 62
     7
370
    -2
100
AcDbLine
 10
454.7871662473229
 20
402.6512103227605
 30
0.0
 11
454.8943091044657
 21
402.6512103227605
 31
0.0
  0
LINE
  5
264B
330
23DB
100
AcDbEntity
  8
0
 62
     7
370
    -2
100
AcDbLine
 10
458.7871662473229
 20
402.6512103227605
 30
0.0
 11
458.6800233901801
 21
402.6512103227605
 31
0.0
  0
INSERT
  5
264C
330
23DB
100
AcDbEntity
  8
0
 62
     7
370
    -2
100
AcDbBlockReference
  2
THICK2
 10
454.7871662473229
 20
402.6512103227605
 30
0.0
  0
INSERT
  5
264D
330
23DB
100
AcDbEntity
  8
0
 62
     7
370
    -2
100
AcDbBlockReference
  2
THICK2
 10
458.7871662473229
 20
402.6512103227605
 30
0.0
 50
180.0
  0
MTEXT
  5
264E
330
23DB
100
AcDbEntity
  8
0
 62
     7
100
AcDbMText
 10
456.7871662473229
 20
402.6512103227605
 30
0.0
 40
2.5
 41
0.0
 71
     5
 72
     1
  1
\A1;4
  7
MAATVOERING
 73
     1
 44
1.0
1001
ACAD
1000
MTEXTBEGIN
1070
    73
1070
     1
1070
    44
1040
1.0
1070
    74
1070
     0
1000
MTEXTEND
  0
POINT
  5
264F
330
23DB
100
AcDbEntity
  8
DEFPOINTS
 62
     0
100
AcDbPoint
 10
454.7871662473229
 20
392.6512103227606
 30
0.0
  0
POINT
  5
2650
330
23DB
100
AcDbEntity
  8
DEFPOINTS
 62
     0
100
AcDbPoint
 10
458.7871662473229
 20
392.6512103227605
 30
0.0
  0
POINT
  5
2651
330
23DB
100
AcDbEntity
  8
DEFPOINTS
 62
     0
100
AcDbPoint
 10
458.7871662473229
 20
402.6512103227605
 30
0.0
  0
ENDBLK
  5
23E6
330
23DB
100
AcDbEntity
  8
0
 62
     7
100
AcDbBlockEnd
  0
BLOCK
  5
23F2
330
23E7
100
AcDbEntity
  8
0
 62
     7
100
AcDbBlockBegin
  2
*D18
 70
     1
 10
0.0
 20
0.0
 30
0.0
  3
*D18
  1

  0
LINE
  5
25FD
330
23E7
100
AcDbEntity
  8
0
 62
     7
370
    -2
100
AcDbLine
 10
398.9668768768567
 20
394.1745481475702
 30
0.0
 11
393.9668768768567
 21
394.1745481475702
 31
0.0
  0
LINE
  5
25FE
330
23E7
100
AcDbEntity
  8
0
 62
     7
370
    -2
100
AcDbLine
 10
398.9668768768567
 20
294.1745481475702
 30
0.0
 11
393.9668768768567
 21
294.1745481475702
 31
0.0
  0
LINE
  5
25FF
330
23E7
100
AcDbEntity
  8
0
 62
     7
370
    -2
100
AcDbLine
 10
395.9668768768567
 20
393.1745481475701
 30
0.0
 11
395.9668768768566
 21
347.4364529094749
 31
0.0
  0
LINE
  5
2600
330
23E7
100
AcDbEntity
  8
0
 62
     7
370
    -2
100
AcDbLine
 10
395.9668768768566
 20
295.1745481475701
 30
0.0
 11
395.9668768768566
 21
340.9126433856654
 31
0.0
  0
INSERT
  5
2601
330
23E7
100
AcDbEntity
  8
0
 62
     7
370
    -2
100
AcDbBlockReference
  2
THICK2
 10
395.9668768768567
 20
394.1745481475702
 30
0.0
 50
90.0
  0
INSERT
  5
2602
330
23E7
100
AcDbEntity
  8
0
 62
     7
370
    -2
100
AcDbBlockReference
  2
THICK2
 10
395.9668768768566
 20
294.1745481475702
 30
0.0
 50
270.0
  0
MTEXT
  5
2603
330
23E7
100
AcDbEntity
  8
0
 62
     7
100
AcDbMText
 10
395.9668768768566
 20
344.1745481475702
 30
0.0
 40
2.5
 41
0.0
 71
     5
 72
     1
  1
\A1;MD
  7
MAATVOERING
 11
0.0000000000000001
 21
1.0
 31
0.0
 73
     1
 44
1.0
1001
ACAD
1000
MTEXTBEGIN
1070
    73
1070
     1
1070
    44
1040
1.0
1070
    74
1070
     0
1000
MTEXTEND
  0
POINT
  5
2604
330
23E7
100
AcDbEntity
  8
DEFPOINTS
 62
     0
100
AcDbPoint
 10
405.9668768768566
 20
394.1745481475702
 30
0.0
  0
POINT
  5
2605
330
23E7
100
AcDbEntity
  8
DEFPOINTS
 62
     0
100
AcDbPoint
 10
405.9668768768566
 20
294.1745481475702
 30
0.0
  0
POINT
  5
2606
330
23E7
100
AcDbEntity
  8
DEFPOINTS
 62
     0
100
AcDbPoint
 10
395.9668768768566
 20
294.1745481475702
 30
0.0
  0
ENDBLK
  5
23F3
330
23E7
100
AcDbEntity
  8
0
 62
     7
100
AcDbBlockEnd
  0
BLOCK
  5
2400
330
23F4
100
AcDbEntity
  8
0
 62
     7
100
AcDbBlockBegin
  2
*D19
 70
     1
 10
0.0
 20
0.0
 30
0.0
  3
*D19
  1

  0
LINE
  5
263B
330
23F4
100
AcDbEntity
  8
0
 62
     7
370
    -2
100
AcDbLine
 10
456.7871662473229
 20
355.1573215711248
 30
0.0
 11
456.7871662473229
 21
351.1573215711248
 31
0.0
  0
LINE
  5
263C
330
23F4
100
AcDbEntity
  8
0
 62
     7
370
    -2
100
AcDbLine
 10
458.7871662473229
 20
355.1573215711248
 30
0.0
 11
458.7871662473229
 21
351.1573215711248
 31
0.0
  0
LINE
  5
263D
330
23F4
100
AcDbEntity
  8
0
 62
     7
370
    -2
100
AcDbLine
 10
455.7871662473228
 20
353.1573215711248
 30
0.0
 11
454.7871662473228
 21
353.1573215711248
 31
0.0
  0
LINE
  5
263E
330
23F4
100
AcDbEntity
  8
0
 62
     7
370
    -2
100
AcDbLine
 10
459.7871662473229
 20
353.1573215711248
 30
0.0
 11
460.7871662473229
 21
353.1573215711248
 31
0.0
  0
MTEXT
  5
263F
330
23F4
100
AcDbEntity
  8
0
 62
     7
100
AcDbMText
 10
462.5322793802792
 20
353.1234984157595
 30
0.0
 40
2.5
 41
0.0
 71
     5
 72
     1
  1
\A1;2
  7
MAATVOERING
 73
     1
 44
1.0
1001
ACAD
1000
MTEXTBEGIN
1070
    73
1070
     1
1070
    44
1040
1.0
1070
    74
1070
     0
1000
MTEXTEND
  0
LINE
  5
2640
330
23F4
100
AcDbEntity
  8
0
 62
     7
370
    -2
100
AcDbLine
 10
456.7871662473229
 20
353.1573215711248
 30
0.0
 11
458.7871662473229
 21
353.1573215711248
 31
0.0
  0
INSERT
  5
2641
330
23F4
100
AcDbEntity
  8
0
 62
     7
370
    -2
100
AcDbBlockReference
  2
THICK2
 10
456.7871662473229
 20
353.1573215711248
 30
0.0
  0
INSERT
  5
2642
330
23F4
100
AcDbEntity
  8
0
 62
     7
370
    -2
100
AcDbBlockReference
  2
THICK2
 10
458.7871662473229
 20
353.1573215711248
 30
0.0
 50
180.0
  0
POINT
  5
2643
330
23F4
100
AcDbEntity
  8
DEFPOINTS
 62
     0
100
AcDbPoint
 10
456.7871662473229
 20
362.1573215711249
 30
0.0
  0
POINT
  5
2644
330
23F4
100
AcDbEntity
  8
DEFPOINTS
 62
     0
100
AcDbPoint
 10
458.7871662473229
 20
362.1573215711249
 30
0.0
  0
POINT
  5
2645
330
23F4
100
AcDbEntity
  8
DEFPOINTS
 62
     0
100
AcDbPoint
 10
458.7871662473229
 20
353.1573215711248
 30
0.0
  0
ENDBLK
  5
2401
330
23F4
100
AcDbEntity
  8
0
 62
     7
100
AcDbBlockEnd
  0
BLOCK
  5
240E
330
2402
100
AcDbEntity
  8
0
 62
     7
100
AcDbBlockBegin
  2
*D20
 70
     1
 10
0.0
 20
0.0
 30
0.0
  3
*D20
  1

  0
LINE
  5
2611
330
2402
100
AcDbEntity
  8
0
 62
     7
370
    -2
100
AcDbLine
 10
399.0571191357682
 20
291.1745481475701
 30
0.0
 11
393.9668768768567
 21
291.1745481475701
 31
0.0
  0
LINE
  5
2612
330
2402
100
AcDbEntity
  8
0
 62
     7
370
    -2
100
AcDbLine
 10
399.0571191357681
 20
294.1745481475702
 30
0.0
 11
393.9668768768567
 21
294.1745481475702
 31
0.0
  0
LINE
  5
2613
330
2402
100
AcDbEntity
  8
0
 62
     7
370
    -2
100
AcDbLine
 10
395.9668768768566
 20
290.1745481475701
 30
0.0
 11
395.9668768768566
 21
289.1745481475701
 31
0.0
  0
LINE
  5
2614
330
2402
100
AcDbEntity
  8
0
 62
     7
370
    -2
100
AcDbLine
 10
395.9668768768566
 20
295.1745481475701
 30
0.0
 11
395.9668768768566
 21
296.1745481475702
 31
0.0
  0
MTEXT
  5
2615
330
2402
100
AcDbEntity
  8
0
 62
     7
100
AcDbMText
 10
395.7337746740028
 20
287.4415061458864
 30
0.0
 40
2.5
 41
0.0
 71
     5
 72
     1
  1
\A1;3
  7
MAATVOERING
 11
0.0000000000000001
 21
1.0
 31
0.0
 73
     1
 44
1.0
1001
ACAD
1000
MTEXTBEGIN
1070
    73
1070
     1
1070
    44
1040
1.0
1070
    74
1070
     0
1000
MTEXTEND
  0
LINE
  5
2616
330
2402
100
AcDbEntity
  8
0
 62
     7
370
    -2
100
AcDbLine
 10
395.9668768768566
 20
291.1745481475701
 30
0.0
 11
395.9668768768566
 21
294.1745481475702
 31
0.0
  0
INSERT
  5
2617
330
2402
100
AcDbEntity
  8
0
 62
     7
370
    -2
100
AcDbBlockReference
  2
THICK2
 10
395.9668768768566
 20
291.1745481475701
 30
0.0
 50
90.0
  0
INSERT
  5
2618
330
2402
100
AcDbEntity
  8
0
 62
     7
370
    -2
100
AcDbBlockReference
  2
THICK2
 10
395.9668768768566
 20
294.1745481475702
 30
0.0
 50
270.0
  0
POINT
  5
2619
330
2402
100
AcDbEntity
  8
DEFPOINTS
 62
     0
100
AcDbPoint
 10
406.0571191357682
 20
291.1745481475701
 30
0.0
  0
POINT
  5
261A
330
2402
100
AcDbEntity
  8
DEFPOINTS
 62
     0
100
AcDbPoint
 10
406.0571191357681
 20
294.1745481475702
 30
0.0
  0
POINT
  5
261B
330
2402
100
AcDbEntity
  8
DEFPOINTS
 62
     0
100
AcDbPoint
 10
395.9668768768566
 20
294.1745481475702
 30
0.0
  0
ENDBLK
  5
240F
330
2402
100
AcDbEntity
  8
0
 62
     7
100
AcDbBlockEnd
  0
BLOCK
  5
241C
330
2410
100
AcDbEntity
  8
0
 62
     7
100
AcDbBlockBegin
  2
*D21
 70
     1
 10
0.0
 20
0.0
 30
0.0
  3
*D21
  1

  0
LINE
  5
261C
330
2410
100
AcDbEntity
  8
0
 62
     7
370
    -2
100
AcDbLine
 10
399.0571191357682
 20
397.1745481475701
 30
0.0
 11
393.9668768768567
 21
397.1745481475701
 31
0.0
  0
LINE
  5
261D
330
2410
100
AcDbEntity
  8
0
 62
     7
370
    -2
100
AcDbLine
 10
399.0571191357681
 20
394.1745481475702
 30
0.0
 11
393.9668768768567
 21
394.1745481475702
 31
0.0
  0
LINE
  5
261E
330
2410
100
AcDbEntity
  8
0
 62
     7
370
    -2
100
AcDbLine
 10
395.9668768768566
 20
398.1745481475702
 30
0.0
 11
395.9668768768566
 21
399.1745481475701
 31
0.0
  0
LINE
  5
261F
330
2410
100
AcDbEntity
  8
0
 62
     7
370
    -2
100
AcDbLine
 10
395.9668768768566
 20
393.1745481475701
 30
0.0
 11
395.9668768768566
 21
392.1745481475701
 31
0.0
  0
MTEXT
  5
2620
330
2410
100
AcDbEntity
  8
0
 62
     7
100
AcDbMText
 10
395.5629110047041
 20
401.0339664249439
 30
0.0
 40
2.5
 41
0.0
 71
     5
 72
     1
  1
\A1;3
  7
MAATVOERING
 11
0.0000000000000001
 21
1.0
 31
0.0
 73
     1
 44
1.0
1001
ACAD
1000
MTEXTBEGIN
1070
    73
1070
     1
1070
    44
1040
1.0
1070
    74
1070
     0
1000
MTEXTEND
  0
LINE
  5
2621
330
2410
100
AcDbEntity
  8
0
 62
     7
370
    -2
100
AcDbLine
 10
395.9668768768566
 20
397.1745481475701
 30
0.0
 11
395.9668768768566
 21
394.1745481475702
 31
0.0
  0
INSERT
  5
2622
330
2410
100
AcDbEntity
  8
0
 62
     7
370
    -2
100
AcDbBlockReference
  2
THICK2
 10
395.9668768768566
 20
397.1745481475701
 30
0.0
 50
270.0
  0
INSERT
  5
2623
330
2410
100
AcDbEntity
  8
0
 62
     7
370
    -2
100
AcDbBlockReference
  2
THICK2
 10
395.9668768768566
 20
394.1745481475702
 30
0.0
 50
90.0
  0
POINT
  5
2624
330
2410
100
AcDbEntity
  8
DEFPOINTS
 62
     0
100
AcDbPoint
 10
406.0571191357682
 20
397.1745481475701
 30
0.0
  0
POINT
  5
2625
330
2410
100
AcDbEntity
  8
DEFPOINTS
 62
     0
100
AcDbPoint
 10
406.0571191357681
 20
394.1745481475702
 30
0.0
  0
POINT
  5
2626
330
2410
100
AcDbEntity
  8
DEFPOINTS
 62
     0
100
AcDbPoint
 10
395.9668768768566
 20
394.1745481475702
 30
0.0
  0
ENDBLK
  5
241D
330
2410
100
AcDbEntity
  8
0
 62
     7
100
AcDbBlockEnd
  0
ENDSEC
  0
SECTION
  2
ENTITIES
  0
TEXT
  5
127C
330
17
100
AcDbEntity
  8
0
100
AcDbText
 10
233.7006929919746
 20
-421.0158465400006
 30
0.0
 40
50.0
  1

100
AcDbText
  0
TEXT
  5
1797
330
17
100
AcDbEntity
  8
0
100
AcDbText
 10
205.1283245567904
 20
-419.5101565298863
 30
0.0
 40
50.0
  1

100
AcDbText
  0
DIMENSION
  5
235B
330
17
100
AcDbEntity
  8
0
100
AcDbDimension
  2
*D13
 10
391.0571191357682
 20
291.1745481475701
 30
0.0
 11
391.0571191357681
 21
344.1745481475702
 31
0.0
 70
    32
  1
PB
 71
     5
 42
106.0
  3
STANDARD
100
AcDbAlignedDimension
 13
406.0571191357682
 23
397.1745481475701
 33
0.0
 14
406.0571191357682
 24
291.1745481475701
 34
0.0
 50
90.0
100
AcDbRotatedDimension
1001
ACAD
1000
DSTYLE
1002
{
1070
    41
1040
1.0
1070
    42
1040
7.0
1070
    43
1040
5.0
1070
    44
1040
2.0
1070
    73
1070
     0
1070
    74
1070
     0
1070
    78
1070
     8
1070
   140
1040
2.5
1070
   141
1040
3.0
1070
   143
1040
0.0394
1070
   146
1040
0.8571428571428571
1070
   147
1040
1.0
1070
   172
1070
     1
1070
   173
1070
     1
1070
   176
1070
     7
1070
   177
1070
     7
1070
   178
1070
     7
1070
   271
1070
     1
1070
   272
1070
     1
1070
   279
1070
     2
1070
   284
1070
     8
1070
   285
1070
     8
1070
   286
1070
     8
1070
   340
1005
527
1070
   342
1005
1C
1002
}
  0
DIMENSION
  5
235C
330
17
100
AcDbEntity
  8
0
100
AcDbDimension
  2
*D14
 10
468.7871662473229
 20
338.6745481475701
 30
0.0
 11
468.7871662473228
 21
314.6745481475702
 31
0.0
 70
    32
 71
     5
 42
48.00000000000006
  3
STANDARD
100
AcDbAlignedDimension
 13
458.7871662473229
 23
290.6745481475701
 33
0.0
 14
458.7871662473229
 24
338.6745481475701
 34
0.0
 50
90.0
100
AcDbRotatedDimension
1001
ACAD
1000
DSTYLE
1002
{
1070
    41
1040
1.0
1070
    42
1040
7.0
1070
    43
1040
5.0
1070
    44
1040
2.0
1070
    73
1070
     0
1070
    74
1070
     0
1070
    78
1070
     8
1070
   140
1040
2.5
1070
   141
1040
3.0
1070
   143
1040
0.0394
1070
   146
1040
0.8571428571428571
1070
   147
1040
1.0
1070
   172
1070
     1
1070
   173
1070
     1
1070
   176
1070
     7
1070
   177
1070
     7
1070
   178
1070
     7
1070
   271
1070
     1
1070
   272
1070
     1
1070
   279
1070
     2
1070
   284
1070
     8
1070
   285
1070
     8
1070
   286
1070
     8
1070
   340
1005
527
1070
   342
1005
1C
1002
}
  0
DIMENSION
  5
235D
330
17
100
AcDbEntity
  8
0
100
AcDbDimension
  2
*D15
 10
443.7871662473229
 20
284.6689505065029
 30
0.0
 11
442.1567730422877
 21
281.2722005791637
 31
0.0
 70
   160
 71
     5
 42
4.0
  3
STANDARD
100
AcDbAlignedDimension
 13
439.7871662473229
 23
294.168950506503
 33
0.0
 14
443.7871662473229
 24
294.168950506503
 34
0.0
100
AcDbRotatedDimension
1001
ACAD
1000
DSTYLE
1002
{
1070
    41
1040
1.0
1070
    42
1040
7.0
1070
    43
1040
5.0
1070
    44
1040
2.0
1070
    73
1070
     0
1070
    74
1070
     0
1070
    78
1070
     8
1070
   140
1040
2.5
1070
   141
1040
3.0
1070
   143
1040
0.0394
1070
   146
1040
0.8571428571428571
1070
   147
1040
1.0
1070
   172
1070
     1
1070
   173
1070
     1
1070
   176
1070
     7
1070
   177
1070
     7
1070
   178
1070
     7
1070
   271
1070
     1
1070
   272
1070
     1
1070
   279
1070
     2
1070
   284
1070
     8
1070
   285
1070
     8
1070
   286
1070
     8
1070
   340
1005
527
1070
   342
1005
1C
1002
}
  0
DIMENSION
  5
235E
330
17
100
AcDbEntity
  8
0
100
AcDbDimension
  2
*D16
 10
458.7871662473229
 20
284.6689505065029
 30
0.0
 11
451.2871662473229
 21
284.6689505065029
 31
0.0
 70
    32
 71
     5
 42
15.0
  3
STANDARD
100
AcDbAlignedDimension
 13
443.7871662473229
 23
294.168950506503
 33
0.0
 14
458.7871662473229
 24
294.168950506503
 34
0.0
100
AcDbRotatedDimension
1001
ACAD
1000
DSTYLE
1002
{
1070
    41
1040
1.0
1070
    42
1040
7.0
1070
    43
1040
5.0
1070
    44
1040
2.0
1070
    73
1070
     0
1070
    74
1070
     0
1070
    78
1070
     8
1070
   140
1040
2.5
1070
   141
1040
3.0
1070
   143
1040
0.0394
1070
   146
1040
0.8571428571428571
1070
   147
1040
1.0
1070
   172
1070
     1
1070
   173
1070
     1
1070
   176
1070
     7
1070
   177
1070
     7
1070
   178
1070
     7
1070
   271
1070
     1
1070
   272
1070
     1
1070
   279
1070
     2
1070
   284
1070
     8
1070
   285
1070
     8
1070
   286
1070
     8
1070
   340
1005
527
1070
   342
1005
1C
1002
}
  0
HATCH
  5
235F
330
17
100
AcDbEntity
  8
0
100
AcDbHatch
 10
0.0
 20
0.0
 30
0.0
210
0.0
220
0.0
230
1.0
  2
SOLID
 70
     1
 71
     1
 91
        1
 92
        7
 72
     1
 73
     1
 93
       21
 10
454.7871662473229
 20
395.6745481475701
 42
0.0
 10
454.7871662473229
 20
386.3455476478745
 42
0.0
 10
456.7871662473229
 20
386.3455476478745
 42
0.0
 10
456.7871662473229
 20
341.4245481475701
 42
-1.096854904864464
 10
455.2999132039794
 20
341.5622360195164
 42
0.0
 10
456.2280570564547
 20
346.5320047451547
 42
0.4693847478798603
 10
452.787542854186
 20
350.6745481475701
 42
0.0
 10
444.7871662473229
 20
350.6745481475701
 42
0.4142135623730951
 10
441.7871662473229
 20
347.6745481475701
 42
0.0
 10
441.7871662473229
 20
301.6260478344999
 42
0.0
 10
439.7871662473229
 20
301.6260478344999
 42
0.0
 10
439.7871662473229
 20
292.6745481475701
 42
1.0
 10
443.787166247323
 20
292.6745481475701
 42
0.0
 10
443.7871662473228
 20
347.6745481475701
 42
-0.4142135623730951
 10
444.7871662473229
 20
348.6745481475701
 42
0.0
 10
452.7875428541859
 20
348.6745481475701
 42
-0.4693847478798652
 10
454.2620489408726
 20
346.8991724036779
 42
0.0
 10
453.3339050883972
 20
341.9294036780394
 42
1.096854904865865
 10
458.7871662473228
 20
341.4245481475701
 42
0.0
 10
458.7871662473229
 20
379.4036039473156
 42
0.0
 10
458.7871662473229
 20
395.6745481475701
 42
1.0
 97
       21
330
2381
330
239C
330
2368
330
2366
330
2362
330
2364
330
236F
330
236A
330
236D
330
239B
330
2360
330
236C
330
236B
330
2369
330
236E
330
2363
330
2361
330
2365
330
2367
330
2382
330
2383
 75
     0
 76
     1
 47
0.1758241105886793
 98
        1
 10
457.8152037657462
 20
396.6184308264367
1001
ACAD
1010
0.0
1020
0.0
1030
0.0
  0
LINE
  5
2360
102
{ACAD_REACTORS
330
235F
102
}
330
17
100
AcDbEntity
  8
0
100
AcDbLine
 10
439.7871662473229
 20
301.6260478344999
 30
0.0
 11
439.7871662473229
 21
292.6745481475701
 31
0.0
  0
LINE
  5
2361
102
{ACAD_REACTORS
330
235F
102
}
330
17
100
AcDbEntity
  8
0
100
AcDbLine
 10
453.3339050883972
 20
341.9294036780394
 30
0.0
 11
454.2620489408726
 21
346.8991724036779
 31
0.0
  0
LINE
  5
2362
102
{ACAD_REACTORS
330
235F
102
}
330
17
100
AcDbEntity
  8
0
100
AcDbLine
 10
455.2999132039793
 20
341.5622360195162
 30
0.0
 11
456.2280570564547
 21
346.5320047451547
 31
0.0
  0
ARC
  5
2363
102
{ACAD_REACTORS
330
235F
102
}
330
17
100
AcDbEntity
  8
0
100
AcDbCircle
 10
452.7875428541859
 20
347.1745481475701
 30
0.0
 40
1.5
100
AcDbArc
 50
349.4214222493142
 51
90.0
  0
ARC
  5
2364
102
{ACAD_REACTORS
330
235F
102
}
330
17
100
AcDbEntity
  8
0
100
AcDbCircle
 10
452.7875428541859
 20
347.1745481475701
 30
0.0
 40
3.5
100
AcDbArc
 50
349.4214222493142
 51
90.0
  0
ARC
  5
2365
102
{ACAD_REACTORS
330
235F
102
}
330
17
100
AcDbEntity
  8
0
100
AcDbCircle
 10
456.0371662473229
 20
341.4245481475701
 30
0.0
 40
2.75
100
AcDbArc
 50
169.4214222493142
 51
0.0
  0
ARC
  5
2366
102
{ACAD_REACTORS
330
235F
102
}
330
17
100
AcDbEntity
  8
0
100
AcDbCircle
 10
456.0371662473229
 20
341.4245481475701
 30
0.0
 40
0.75
100
AcDbArc
 50
169.4214222493142
 51
0.0
  0
LINE
  5
2367
102
{ACAD_REACTORS
330
235F
102
}
330
17
100
AcDbEntity
  8
0
100
AcDbLine
 10
458.7871662473229
 20
379.4036039473156
 30
0.0
 11
458.7871662473228
 21
341.4245481475701
 31
0.0
  0
LINE
  5
2368
102
{ACAD_REACTORS
330
235F
102
}
330
17
100
AcDbEntity
  8
0
100
AcDbLine
 10
456.7871662473229
 20
395.6745481475701
 30
0.0
 11
456.7871662473229
 21
341.4245481475701
 31
0.0
  0
ARC
  5
2369
102
{ACAD_REACTORS
330
235F
102
}
330
17
100
AcDbEntity
  8
0
100
AcDbCircle
 10
444.7871662473229
 20
347.6745481475701
 30
0.0
 40
1.0
100
AcDbArc
 50
90.0
 51
180.0
1001
GENIUS_GENOBJ-N-FIL_13
1002
{
1000
OWNER
1000
GEN
1002
}
1001
GENIUS_GENODEF_13
1002
{
1000
HIER
1070
     0
1002
}
1002
{
1000
MANEDIT
1070
     0
1002
}
1002
{
1000
NOSEL
1070
     0
1002
}
1002
{
1000
BEHIND
1070
     0
1002
}
1002
{
1000
OTHER
1070
     0
1002
}
1002
{
1000
REACTOR
1002
}
  0
ARC
  5
236A
102
{ACAD_REACTORS
330
235F
102
}
330
17
100
AcDbEntity
  8
0
100
AcDbCircle
 10
444.7871662473229
 20
347.6745481475701
 30
0.0
 40
3.0
100
AcDbArc
 50
90.0
 51
180.0
1001
GENIUS_GENOBJ-N-FIL_13
1002
{
1000
OWNER
1000
GEN
1002
}
1001
GENIUS_GENODEF_13
1002
{
1000
HIER
1070
     0
1002
}
1002
{
1000
MANEDIT
1070
     0
1002
}
1002
{
1000
NOSEL
1070
     0
1002
}
1002
{
1000
BEHIND
1070
     0
1002
}
1002
{
1000
OTHER
1070
     0
1002
}
1002
{
1000
REACTOR
1002
}
  0
LINE
  5
236B
102
{ACAD_REACTORS
330
235F
102
}
330
17
100
AcDbEntity
  8
0
100
AcDbLine
 10
443.787166247323
 20
292.6745481475701
 30
0.0
 11
443.7871662473228
 21
347.6745481475701
 31
0.0
  0
ARC
  5
236C
102
{ACAD_REACTORS
330
235F
102
}
330
17
100
AcDbEntity
  8
0
100
AcDbCircle
 10
441.7871662473229
 20
292.6745481475701
 30
0.0
 40
2.000000000000021
100
AcDbArc
 50
180.0
 51
0.0
  0
LINE
  5
236D
102
{ACAD_REACTORS
330
235F
102
}
330
17
100
AcDbEntity
  8
0
100
AcDbLine
 10
441.7871662473229
 20
292.6745481475701
 30
0.0
 11
441.7871662473229
 21
347.6745481475701
 31
0.0
  0
LINE
  5
236E
102
{ACAD_REACTORS
330
235F
102
}
330
17
100
AcDbEntity
  8
0
100
AcDbLine
 10
452.7875428541859
 20
348.6745481475701
 30
0.0
 11
444.7871662473229
 21
348.6745481475701
 31
0.0
  0
LINE
  5
236F
102
{ACAD_REACTORS
330
235F
102
}
330
17
100
AcDbEntity
  8
0
100
AcDbLine
 10
452.7875428541859
 20
350.6745481475701
 30
0.0
 11
444.7871662473229
 21
350.6745481475701
 31
0.0
  0
INSERT
  5
2370
330
17
100
AcDbEntity
  8
0
100
AcDbBlockReference
  2
Band-Nr6150
 10
455.7955456469472
 20
338.5447653721556
 30
0.0
  0
HATCH
  5
2371
330
17
100
AcDbEntity
  8
0
100
AcDbHatch
 10
0.0
 20
0.0
 30
0.0
210
0.0
220
0.0
230
1.0
  2
SOLID
 70
     1
 71
     1
 91
        1
 92
        7
 72
     1
 73
     1
 93
       20
 10
454.5709029443773
 20
380.7479330715052
 42
0.0
 10
454.5709029443771
 20
368.4040018575895
 42
-0.4142135623730929
 10
453.5709029443771
 20
367.4040018575895
 42
0.0
 10
411.7871662473229
 20
367.4040018575895
 42
0.4142135623730998
 10
409.2871662473227
 20
364.9040018575895
 42
0.0
 10
409.2871662473229
 20
324.6745481475701
 42
0.4142135623730951
 10
411.7871662473229
 20
322.1745481475701
 42
0.0
 10
438.6026013051868
 20
322.1745481475701
 42
-0.4142135623730951
 10
439.6026013051868
 20
321.1745481475701
 42
0.0
 10
439.6026013051868
 20
310.3345357343518
 42
0.0
 10
441.6026013051868
 20
310.3345357343518
 42
0.0
 10
441.6026013051868
 20
321.1745481475701
 42
0.4142135623730966
 10
438.6026013051868
 20
324.1745481475701
 42
0.0
 10
411.7871662473229
 20
324.1745481475701
 42
-0.4142135623730951
 10
411.2871662473229
 20
324.6745481475701
 42
0.0
 10
411.2871662473228
 20
364.9040018575895
 42
-0.4142135623731197
 10
411.7871662473229
 20
365.4040018575895
 42
0.0
 10
453.5709029443771
 20
365.4040018575895
 42
0.4142135623730979
 10
456.5709029443771
 20
368.4040018575895
 42
0.0
 10
456.5709029443772
 20
380.747933071505
 42
0.0
 97
       20
330
237F
330
239E
330
239D
330
237D
330
237C
330
2377
330
2373
330
2375
330
237A
330
23A2
330
23A1
330
23A3
330
239F
330
23A0
330
2379
330
2374
330
2372
330
2376
330
237B
330
237E
 75
     0
 76
     1
 47
0.2065436743774712
 98
        1
 10
442.0655050353704
 20
417.6308968177062
1001
ACAD
1010
0.0
1020
0.0
1030
0.0
  0
LINE
  5
2372
102
{ACAD_REACTORS
330
2371
102
}
330
17
100
AcDbEntity
  8
0
100
AcDbLine
 10
411.2871662473229
 20
324.6745481475701
 30
0.0
 11
411.2871662473228
 21
364.9040018575895
 31
0.0
  0
LINE
  5
2373
102
{ACAD_REACTORS
330
2371
102
}
330
17
100
AcDbEntity
  8
0
100
AcDbLine
 10
409.2871662473229
 20
324.6745481475701
 30
0.0
 11
409.2871662473227
 21
364.9040018575895
 31
0.0
  0
ARC
  5
2374
102
{ACAD_REACTORS
330
2371
102
}
330
17
100
AcDbEntity
  8
0
100
AcDbCircle
 10
411.7871662473229
 20
324.6745481475701
 30
0.0
 40
0.5
100
AcDbArc
 50
180.0
 51
270.0
  0
ARC
  5
2375
102
{ACAD_REACTORS
330
2371
102
}
330
17
100
AcDbEntity
  8
0
100
AcDbCircle
 10
411.7871662473229
 20
324.6745481475701
 30
0.0
 40
2.5
100
AcDbArc
 50
180.0
 51
270.0
  0
ARC
  5
2376
102
{ACAD_REACTORS
330
2371
102
}
330
17
100
AcDbEntity
  8
0
100
AcDbCircle
 10
411.7871662473229
 20
364.9040018575895
 30
0.0
 40
0.5
100
AcDbArc
 50
90.0
 51
180.0
  0
ARC
  5
2377
102
{ACAD_REACTORS
330
2371
102
}
330
17
100
AcDbEntity
  8
0
100
AcDbCircle
 10
411.7871662473229
 20
364.9040018575895
 30
0.0
 40
2.5
100
AcDbArc
 50
90.0
 51
180.0
  0
LINE
  5
2378
330
17
100
AcDbEntity
  8
0
100
AcDbLine
 10
441.7871662473229
 20
322.1745481475701
 30
0.0
 11
441.7871662473229
 21
304.0344363144841
 31
0.0
  0
LINE
  5
2379
102
{ACAD_REACTORS
330
2371
102
}
330
17
100
AcDbEntity
  8
0
100
AcDbLine
 10
438.6026013051868
 20
324.1745481475701
 30
0.0
 11
411.7871662473229
 21
324.1745481475701
 31
0.0
  0
LINE
  5
237A
102
{ACAD_REACTORS
330
2371
102
}
330
17
100
AcDbEntity
  8
0
100
AcDbLine
 10
438.6026013051868
 20
322.1745481475701
 30
0.0
 11
411.7871662473229
 21
322.1745481475701
 31
0.0
  0
LINE
  5
237B
102
{ACAD_REACTORS
330
2371
102
}
330
17
100
AcDbEntity
  8
0
100
AcDbLine
 10
453.5709029443771
 20
365.4040018575895
 30
0.0
 11
411.7871662473229
 21
365.4040018575895
 31
0.0
  0
LINE
  5
237C
102
{ACAD_REACTORS
330
2371
102
}
330
17
100
AcDbEntity
  8
0
100
AcDbLine
 10
453.5709029443771
 20
367.4040018575895
 30
0.0
 11
411.7871662473229
 21
367.4040018575895
 31
0.0
  0
ARC
  5
237D
102
{ACAD_REACTORS
330
2371
102
}
330
17
100
AcDbEntity
  8
0
100
AcDbCircle
 10
453.5709029443771
 20
368.4040018575895
 30
0.0
 40
1.0
100
AcDbArc
 50
270.0
 51
0.0
  0
ARC
  5
237E
102
{ACAD_REACTORS
330
2371
102
}
330
17
100
AcDbEntity
  8
0
100
AcDbCircle
 10
453.5709029443771
 20
368.4040018575895
 30
0.0
 40
3.0
100
AcDbArc
 50
270.0
 51
0.0
  0
LINE
  5
237F
102
{ACAD_REACTORS
330
2371
102
}
330
17
100
AcDbEntity
  8
0
100
AcDbLine
 10
456.5709029443771
 20
368.4040018575895
 30
0.0
 11
456.5709029443772
 21
380.747933071505
 31
0.0
  0
TEXT
  5
2380
330
17
100
AcDbEntity
  8
0
100
AcDbText
 10
385.9052696958028
 20
415.856092040051
 30
0.0
 40
2.5
  1
3-zijdig omlopend verstevigingsprofiel
  7
MAATVOERING
100
AcDbText
  0
LINE
  5
2381
102
{ACAD_REACTORS
330
235F
102
}
330
17
100
AcDbEntity
  8
0
100
AcDbLine
 10
454.7871662473229
 20
386.3455476478745
 30
0.0
 11
454.7871662473229
 21
395.6745481475701
 31
0.0
  0
LINE
  5
2382
102
{ACAD_REACTORS
330
235F
102
}
330
17
100
AcDbEntity
  8
0
100
AcDbLine
 10
458.7871662473229
 20
395.6745481475701
 30
0.0
 11
458.7871662473229
 21
379.4036039473156
 31
0.0
  0
ARC
  5
2383
102
{ACAD_REACTORS
330
235F
102
}
330
17
100
AcDbEntity
  8
0
100
AcDbCircle
 10
456.7871662473229
 20
395.6745481475701
 30
0.0
 40
2.000000000000028
100
AcDbArc
 50
0.0
 51
180.0
  0
LINE
  5
2384
330
17
100
AcDbEntity
  8
0
 48
10.0
100
AcDbLine
 10
438.6756473099288
 20
294.1745481475702
 30
0.0
 11
358.4777312774134
 21
294.1745481475702
 31
0.0
  0
LINE
  5
2385
330
17
100
AcDbEntity
  8
0
 48
10.0
100
AcDbLine
 10
438.6756473099288
 20
319.1745481475702
 30
0.0
 11
358.4777312774134
 21
319.1745481475702
 31
0.0
  0
LINE
  5
2386
330
17
100
AcDbEntity
  8
0
 48
10.0
100
AcDbLine
 10
438.6756473099288
 20
306.6745481475702
 30
0.0
 11
358.4777312774134
 21
306.6745481475702
 31
0.0
  0
LINE
  5
2387
330
17
100
AcDbEntity
  8
0
 48
10.0
100
AcDbLine
 10
438.6756473099288
 20
294.1745481475702
 30
0.0
 11
438.6756473099288
 21
319.1745481475702
 31
0.0
  0
LINE
  5
2388
330
17
100
AcDbEntity
  8
0
 48
10.0
100
AcDbLine
 10
454.5916781479466
 20
368.4040018575895
 30
0.0
 11
454.5709029443772
 21
368.4040018575895
 31
0.0
  0
LINE
  5
2389
330
17
100
AcDbEntity
  8
0
 48
10.0
100
AcDbLine
 10
453.6938397822624
 20
369.1745481475702
 30
0.0
 11
358.4777312774134
 21
369.1745481475702
 31
0.0
  0
LINE
  5
238A
330
17
100
AcDbEntity
  8
0
 48
10.0
100
AcDbLine
 10
454.8079414508922
 20
395.1745481475701
 30
0.0
 11
454.7871662473229
 21
395.1745481475701
 31
0.0
  0
LINE
  5
238B
330
17
100
AcDbEntity
  8
0
 48
10.0
100
AcDbLine
 10
453.6938397822624
 20
394.1745481475702
 30
0.0
 11
358.4777312774134
 21
394.1745481475702
 31
0.0
  0
LINE
  5
238C
330
17
100
AcDbEntity
  8
0
 48
10.0
100
AcDbLine
 10
454.5916781479466
 20
379.2013030239588
 30
0.0
 11
454.5709029443772
 21
379.2013030239588
 31
0.0
  0
LINE
  5
238D
330
17
100
AcDbEntity
  8
0
 48
10.0
100
AcDbLine
 10
453.6938397822624
 20
381.6745481475702
 30
0.0
 11
358.4777312774134
 21
381.6745481475702
 31
0.0
  0
LINE
  5
238E
330
17
100
AcDbEntity
  8
0
 48
10.0
100
AcDbLine
 10
453.6938397822624
 20
369.1745481475702
 30
0.0
 11
453.6938397822624
 21
394.1745481475702
 31
0.0
  0
DIMENSION
  5
238F
330
17
100
AcDbEntity
  8
0
100
AcDbDimension
  2
*D17
 10
458.7871662473229
 20
402.6512103227605
 30
0.0
 11
456.7871662473229
 21
402.6512103227605
 31
0.0
 70
    32
 71
     5
 42
4.0
  3
STANDARD
100
AcDbAlignedDimension
 13
454.7871662473229
 23
392.6512103227606
 33
0.0
 14
458.7871662473229
 24
392.6512103227605
 34
0.0
100
AcDbRotatedDimension
1001
ACAD
1000
DSTYLE
1002
{
1070
    41
1040
1.0
1070
    42
1040
7.0
1070
    43
1040
5.0
1070
    44
1040
2.0
1070
    73
1070
     0
1070
    74
1070
     0
1070
    78
1070
     8
1070
   140
1040
2.5
1070
   141
1040
3.0
1070
   143
1040
0.0394
1070
   146
1040
0.8571428571428571
1070
   147
1040
1.0
1070
   172
1070
     1
1070
   173
1070
     1
1070
   176
1070
     7
1070
   177
1070
     7
1070
   178
1070
     7
1070
   271
1070
     1
1070
   272
1070
     1
1070
   279
1070
     2
1070
   284
1070
     8
1070
   285
1070
     8
1070
   286
1070
     8
1070
   340
1005
527
1070
   341
1005
1C
1070
   342
1005
1C
1002
}
  0
DIMENSION
  5
2390
330
17
100
AcDbEntity
  8
0
100
AcDbDimension
  2
*D18
 10
395.9668768768566
 20
294.1745481475702
 30
0.0
 11
395.9668768768566
 21
344.1745481475702
 31
0.0
 70
    32
  1
MD
 71
     5
 42
100.0
  3
STANDARD
100
AcDbAlignedDimension
 13
405.9668768768566
 23
394.1745481475702
 33
0.0
 14
405.9668768768566
 24
294.1745481475702
 34
0.0
 50
90.0
100
AcDbRotatedDimension
1001
ACAD
1000
DSTYLE
1002
{
1070
    41
1040
1.0
1070
    42
1040
7.0
1070
    43
1040
5.0
1070
    44
1040
2.0
1070
    73
1070
     0
1070
    74
1070
     0
1070
    78
1070
     8
1070
   140
1040
2.5
1070
   141
1040
3.0
1070
   143
1040
0.0394
1070
   146
1040
0.8571428571428571
1070
   147
1040
1.0
1070
   172
1070
     1
1070
   173
1070
     1
1070
   176
1070
     7
1070
   177
1070
     7
1070
   178
1070
     7
1070
   271
1070
     1
1070
   272
1070
     1
1070
   279
1070
     2
1070
   284
1070
     8
1070
   285
1070
     8
1070
   286
1070
     8
1070
   340
1005
527
1070
   341
1005
1C
1070
   342
1005
1C
1002
}
  0
LINE
  5
2391
330
17
100
AcDbEntity
  8
0
 48
10.0
100
AcDbLine
 10
358.4777312774134
 20
368.7785289108904
 30
0.0
 11
406.1668492126244
 21
368.7785289108904
 31
0.0
  0
LINE
  5
2392
330
17
100
AcDbEntity
  8
0
 48
10.0
100
AcDbLine
 10
358.4777312774134
 20
366.7785289108904
 30
0.0
 11
406.1668492126244
 21
366.7785289108904
 31
0.0
  0
LINE
  5
2393
330
17
100
AcDbEntity
  8
0
 48
10.0
100
AcDbLine
 10
409.1668492126244
 20
365.7785289108904
 30
0.0
 11
409.1668492126244
 21
322.76726154277
 31
0.0
  0
ARC
  5
2394
330
17
100
AcDbEntity
  8
0
 48
10.0
100
AcDbCircle
 10
406.1668492126244
 20
365.7785289108904
 30
0.0
 40
3.0
100
AcDbArc
 50
0.0
 51
90.0
  0
LINE
  5
2395
330
17
100
AcDbEntity
  8
0
 48
10.0
100
AcDbLine
 10
407.1668492126244
 20
365.7785289108904
 30
0.0
 11
407.1668492126244
 21
322.76726154277
 31
0.0
  0
ARC
  5
2396
330
17
100
AcDbEntity
  8
0
 48
10.0
100
AcDbCircle
 10
406.1668492126244
 20
365.7785289108904
 30
0.0
 40
1.0
100
AcDbArc
 50
0.0
 51
90.0
  0
LINE
  5
2397
330
17
100
AcDbEntity
  8
0
 48
10.0
100
AcDbLine
 10
406.1668492126244
 20
319.76726154277
 30
0.0
 11
358.4777312774134
 21
319.76726154277
 31
0.0
  0
ARC
  5
2398
330
17
100
AcDbEntity
  8
0
 48
10.0
100
AcDbCircle
 10
406.1668492126244
 20
322.76726154277
 30
0.0
 40
3.0
100
AcDbArc
 50
270.0
 51
0.0
  0
LINE
  5
2399
330
17
100
AcDbEntity
  8
0
 48
10.0
100
AcDbLine
 10
406.1668492126244
 20
321.76726154277
 30
0.0
 11
358.4777312774134
 21
321.76726154277
 31
0.0
  0
ARC
  5
239A
330
17
100
AcDbEntity
  8
0
 48
10.0
100
AcDbCircle
 10
406.1668492126244
 20
322.76726154277
 30
0.0
 40
1.0
100
AcDbArc
 50
270.0
 51
0.0
  0
LINE
  5
239B
102
{ACAD_REACTORS
330
235F
102
}
330
17
100
AcDbEntity
  8
0
100
AcDbLine
 10
439.7871662473229
 20
301.6260478344999
 30
0.0
 11
441.7871662473229
 21
301.6260478344999
 31
0.0
  0
LINE
  5
239C
102
{ACAD_REACTORS
330
235F
102
}
330
17
100
AcDbEntity
  8
0
100
AcDbLine
 10
454.7871662473229
 20
386.3455476478745
 30
0.0
 11
456.7871662473229
 21
386.3455476478745
 31
0.0
  0
LINE
  5
239D
102
{ACAD_REACTORS
330
2371
102
}
330
17
100
AcDbEntity
  8
0
100
AcDbLine
 10
454.5709029443771
 20
368.4040018575895
 30
0.0
 11
454.5709029443772
 21
380.747933071505
 31
0.0
  0
LINE
  5
239E
102
{ACAD_REACTORS
330
2371
102
}
330
17
100
AcDbEntity
  8
0
100
AcDbLine
 10
454.5709029443772
 20
380.747933071505
 30
0.0
 11
456.5709029443772
 21
380.747933071505
 31
0.0
  0
LINE
  5
239F
102
{ACAD_REACTORS
330
2371
102
}
330
17
100
AcDbEntity
  8
0
100
AcDbLine
 10
441.6026013051868
 20
321.1745481475701
 30
0.0
 11
441.6026013051868
 21
310.3345357343518
 31
0.0
  0
ARC
  5
23A0
102
{ACAD_REACTORS
330
2371
102
}
330
17
100
AcDbEntity
  8
0
100
AcDbCircle
 10
438.6026013051868
 20
321.1745481475701
 30
0.0
 40
3.0
100
AcDbArc
 50
0.0
 51
90.0
  0
LINE
  5
23A1
102
{ACAD_REACTORS
330
2371
102
}
330
17
100
AcDbEntity
  8
0
100
AcDbLine
 10
439.6026013051868
 20
321.1745481475701
 30
0.0
 11
439.6026013051868
 21
310.3345357343518
 31
0.0
  0
ARC
  5
23A2
102
{ACAD_REACTORS
330
2371
102
}
330
17
100
AcDbEntity
  8
0
100
AcDbCircle
 10
438.6026013051868
 20
321.1745481475701
 30
0.0
 40
1.0
100
AcDbArc
 50
0.0
 51
90.0
  0
LINE
  5
23A3
102
{ACAD_REACTORS
330
2371
102
}
330
17
100
AcDbEntity
  8
0
100
AcDbLine
 10
439.6026013051868
 20
310.3345357343518
 30
0.0
 11
441.6026013051868
 21
310.3345357343518
 31
0.0
  0
DIMENSION
  5
23A4
330
17
100
AcDbEntity
  8
0
100
AcDbDimension
  2
*D19
 10
458.7871662473229
 20
353.1573215711248
 30
0.0
 11
462.5322793802792
 21
353.1234984157595
 31
0.0
 70
   160
 71
     5
 42
2.000000000000056
  3
STANDARD
100
AcDbAlignedDimension
 13
456.7871662473229
 23
362.1573215711249
 33
0.0
 14
458.7871662473229
 24
362.1573215711249
 34
0.0
100
AcDbRotatedDimension
1001
ACAD
1000
DSTYLE
1002
{
1070
    41
1040
1.0
1070
    42
1040
7.0
1070
    43
1040
5.0
1070
    44
1040
2.0
1070
    73
1070
     0
1070
    74
1070
     0
1070
    78
1070
     8
1070
   140
1040
2.5
1070
   141
1040
3.0
1070
   143
1040
0.0394
1070
   146
1040
0.8571428571428571
1070
   147
1040
1.0
1070
   172
1070
     1
1070
   173
1070
     1
1070
   176
1070
     7
1070
   177
1070
     7
1070
   178
1070
     7
1070
   271
1070
     1
1070
   272
1070
     1
1070
   279
1070
     2
1070
   284
1070
     8
1070
   285
1070
     8
1070
   286
1070
     8
1070
   340
1005
527
1070
   341
1005
1C
1070
   342
1005
1C
1002
}
  0
LINE
  5
23A5
330
17
100
AcDbEntity
  8
0
100
AcDbLine
 10
420.458948435415
 20
367.2432820387021
 30
0.0
 11
423.7293729514415
 21
413.1812749634437
 31
0.0
  0
DIMENSION
  5
23A6
330
17
100
AcDbEntity
  8
0
100
AcDbDimension
  2
*D20
 10
395.9668768768566
 20
294.1745481475702
 30
0.0
 11
395.7337746740028
 21
287.4415061458864
 31
0.0
 70
   160
 71
     5
 42
3.0
  3
STANDARD
100
AcDbAlignedDimension
 13
406.0571191357682
 23
291.1745481475701
 33
0.0
 14
406.0571191357681
 24
294.1745481475702
 34
0.0
 50
90.0
100
AcDbRotatedDimension
1001
ACAD
1000
DSTYLE
1002
{
1070
    41
1040
1.0
1070
    42
1040
7.0
1070
    43
1040
5.0
1070
    44
1040
2.0
1070
    73
1070
     0
1070
    74
1070
     0
1070
    78
1070
     8
1070
   140
1040
2.5
1070
   141
1040
3.0
1070
   143
1040
0.0394
1070
   146
1040
0.8571428571428571
1070
   147
1040
1.0
1070
   172
1070
     1
1070
   173
1070
     1
1070
   176
1070
     7
1070
   177
1070
     7
1070
   178
1070
     7
1070
   271
1070
     1
1070
   272
1070
     1
1070
   279
1070
     2
1070
   284
1070
     8
1070
   285
1070
     8
1070
   286
1070
     8
1070
   340
1005
527
1070
   341
1005
1C
1070
   342
1005
1C
1002
}
  0
DIMENSION
  5
23A7
330
17
100
AcDbEntity
  8
0
100
AcDbDimension
  2
*D21
 10
395.9668768768566
 20
394.1745481475702
 30
0.0
 11
395.5629110047041
 21
401.0339664249439
 31
0.0
 70
   160
 71
     5
 42
3.0
  3
STANDARD
100
AcDbAlignedDimension
 13
406.0571191357682
 23
397.1745481475701
 33
0.0
 14
406.0571191357681
 24
394.1745481475702
 34
0.0
 50
90.0
100
AcDbRotatedDimension
1001
ACAD
1000
DSTYLE
1002
{
1070
    41
1040
1.0
1070
    42
1040
7.0
1070
    43
1040
5.0
1070
    44
1040
2.0
1070
    73
1070
     0
1070
    74
1070
     0
1070
    78
1070
     8
1070
   140
1040
2.5
1070
   141
1040
3.0
1070
   143
1040
0.0394
1070
   146
1040
0.8571428571428571
1070
   147
1040
1.0
1070
   172
1070
     1
1070
   173
1070
     1
1070
   176
1070
     7
1070
   177
1070
     7
1070
   178
1070
     7
1070
   271
1070
     1
1070
   272
1070
     1
1070
   279
1070
     2
1070
   284
1070
     8
1070
   285
1070
     8
1070
   286
1070
     8
1070
   340
1005
527
1070
   341
1005
1C
1070
   342
1005
1C
1002
}
  0
TEXT
  5
2652
330
17
100
AcDbEntity
  8
0
100
AcDbText
 10
356.5703340701742
 20
434.9393546166328
 30
0.0
 40
2.5
  1
Detail draaideur Sino
  7
MAATVOERING
100
AcDbText
  0
ENDSEC
  0
SECTION
  2
OBJECTS
  0
DICTIONARY
  5
C
330
0
100
AcDbDictionary
281
     1
  3
ACAD_COLOR
350
6ED
  3
ACAD_GROUP
350
D
  3
ACAD_LAYOUT
350
638
  3
ACAD_MATERIAL
350
6EC
  3
ACAD_MLINESTYLE
350
1A
  3
ACAD_PLOTSETTINGS
350
639
  3
ACAD_PLOTSTYLENAME
350
636
  3
ACAD_TABLESTYLE
350
6F4
  3
ACDBHEADERROUNDTRIPXREC
350
265B
  3
ACDBVARIABLEDICTIONARY
350
34
  0
DICTIONARY
  5
8C5
330
2
100
AcDbDictionary
280
     1
281
     1
  3
ACAD_LAYERSTATES
360
8C6
  0
DICTIONARY
  5
98E
330
17
100
AcDbDictionary
280
     1
281
     1
  3
ACAD_SORTENTS
360
98F
  0
DICTIONARY
  5
6ED
102
{ACAD_REACTORS
330
C
102
}
330
C
100
AcDbDictionary
281
     1
  0
DICTIONARY
  5
D
102
{ACAD_REACTORS
330
C
102
}
330
C
100
AcDbDictionary
281
     1
  0
DICTIONARY
  5
638
102
{ACAD_REACTORS
330
C
102
}
330
C
100
AcDbDictionary
281
     1
  3
Layout1
350
63B
  3
Model
350
63A
  0
DICTIONARY
  5
6EC
102
{ACAD_REACTORS
330
C
102
}
330
C
100
AcDbDictionary
281
     1
  0
DICTIONARY
  5
1A
102
{ACAD_REACTORS
330
C
102
}
330
C
100
AcDbDictionary
281
     1
  3
STANDARD
350
1B
  0
DICTIONARY
  5
639
102
{ACAD_REACTORS
330
C
102
}
330
C
100
AcDbDictionary
281
     1
  3
nashauACADA4
350
66E
  0
ACDBDICTIONARYWDFLT
  5
636
102
{ACAD_REACTORS
330
C
102
}
330
C
100
AcDbDictionary
281
     1
  3
Normal
350
637
100
AcDbDictionaryWithDefault
340
637
  0
DICTIONARY
  5
6F4
102
{ACAD_REACTORS
330
C
102
}
330
C
100
AcDbDictionary
281
     1
  3
Standard
350
6F5
  0
DICTIONARY
  5
265B
102
{ACAD_REACTORS
330
C
102
}
330
C
100
AcDbDictionary
281
     1
  3
COLORDICT
350
265D
  3
MATERIALDICT
350
265C
  0
DICTIONARY
  5
34
102
{ACAD_REACTORS
330
C
102
}
330
C
100
AcDbDictionary
281
     1
  3
CTABLESTYLE
350
70A
  3
DIMADEC
350
35
  3
DIMASSOC
350
6D1
  3
PROJECTNAME
350
2659
  3
SORTENTS
350
5BF
  0
DICTIONARY
  5
8C6
102
{ACAD_REACTORS
330
8C5
102
}
330
8C5
100
AcDbDictionary
281
     1
  0
SORTENTSTABLE
  5
98F
102
{ACAD_REACTORS
330
98E
102
}
330
98E
100
AcDbSortentsTable
330
17
331
127C
  5
127C
  0
LAYOUT
  5
63B
102
{ACAD_XDICTIONARY
360
2660
102
}
102
{ACAD_REACTORS
330
638
102
}
330
638
100
AcDbPlotSettings
  1

  2
C:\PROGRAM FILES\AUTOCAD LT 97\plotters\candy.pc3
  4

  6

 40
0.0
 41
0.0
 42
0.0
 43
0.0
 44
0.0
 45
0.0
 46
0.0
 47
0.0
 48
0.0
 49
0.0
140
0.0
141
0.0
142
1.0
143
1.0
 70
   688
 72
     0
 73
     0
 74
     5
  7
candy.ctb
 75
    16
147
1.0
148
0.0
149
0.0
100
AcDbLayout
  1
Layout1
 70
     1
 71
     1
 10
0.0
 20
0.0
 11
420.0
 21
297.0
 12
0.0
 22
0.0
 32
0.0
 14
0.0
 24
0.0
 34
0.0
 15
450.0568771082567
 25
308.5802752293554
 35
0.0
146
0.0
 13
0.0
 23
0.0
 33
0.0
 16
1.0
 26
0.0
 36
0.0
 17
0.0
 27
1.0
 37
0.0
 76
     0
330
14
  0
LAYOUT
  5
63A
102
{ACAD_XDICTIONARY
360
265E
102
}
102
{ACAD_REACTORS
330
638
102
}
330
638
100
AcDbPlotSettings
  1

  2
EigenPrinter.pc3
  4
A4
  6

 40
5.027083
 41
5.027084999999999
 42
5.027084
 43
5.027069
 44
209.973328
 45
296.925995
 46
10.0
 47
2.0
 48
17.5
 49
5.0
140
202.5
141
289.96
142
1.0
143
1.0
 70
 11952
 72
     1
 73
     0
 74
     4
  7
plotpen.ctb
 75
    16
147
1.0
148
-17.5
149
-5.0
100
AcDbLayout
  1
Model
 70
     1
 71
     0
 10
0.0
 20
0.0
 11
12.0
 21
9.0
 12
0.0
 22
0.0
 32
0.0
 14
0.0
 24
0.0
 34
0.0
 15
0.0
 25
0.0
 35
0.0
146
0.0
 13
0.0
 23
0.0
 33
0.0
 16
1.0
 26
0.0
 36
0.0
 17
0.0
 27
1.0
 37
0.0
 76
     0
330
17
  0
MLINESTYLE
  5
1B
102
{ACAD_REACTORS
330
1A
102
}
330
1A
100
AcDbMlineStyle
  2
STANDARD
 70
     0
  3

 62
   256
 51
90.0
 52
90.0
 71
     2
 49
0.5
 62
   256
  6
BYLAYER
 49
-0.5
 62
   256
  6
BYLAYER
  0
PLOTSETTINGS
  5
66E
102
{ACAD_XDICTIONARY
360
2662
102
}
102
{ACAD_REACTORS
330
639
102
}
330
639
100
AcDbPlotSettings
  1
nashauACADA4
  2
NashauACADA4.pc3
  4
A4
  6

 40
5.111750125885009
 41
5.11176061630249
 42
5.111740112304687
 43
5.11175537109375
 44
209.9733276367187
 45
296.9259948730469
 46
10.0
 47
2.0
 48
17.5
 49
5.0
140
202.5
141
289.96
142
1.0
143
1.0
 70
  1712
 72
     1
 73
     0
 74
     4
  7
candy.ctb
 75
    16
147
1.0
148
-17.5
149
-5.0
  0
ACDBPLACEHOLDER
  5
637
102
{ACAD_REACTORS
330
636
102
}
330
636
  0
ACAD_PROXY_OBJECT
  5
6F5
102
{ACAD_REACTORS
330
6F4
102
}
330
6F4
100
AcDbProxyObject
 90
      499
 91
      507
 95
       25
 70
     0
 93
     1841
310
4214DD185B99185C9928B81E85EB51B8AE3F2E07A17AD46E2B8FC02B5E8DC0F42B1CFD028000000C1008070000C3001FDFF8000000C1003FBFF000000182007F7FE00000030400FEFFC00000060801FDFF8000000C1003FBFF00000018200000000000000681FA0B0000001820100E000186003FBFF000000182007F7FE000
310
00030400FEFFC00000060801FDFF8000000C1003FBFF000000182007F7FE000000304000AD7A3703D0AC73F4160000003040201C00030C007F7FE00000030400FEFFC00000060801FDFF8000000C1003FBFF000000182007F7FE00000030400FEFFC000000608070
340
F
340
F
340
F
 94
        0
1001
ACAD
1000
AcRTDxfName
1000
TABLESTYLE
  0
XRECORD
  5
265D
102
{ACAD_REACTORS
330
265B
102
}
330
265B
100
AcDbXrecord
280
     1
340
6ED
  0
XRECORD
  5
265C
102
{ACAD_REACTORS
330
265B
102
}
330
265B
100
AcDbXrecord
280
     1
340
6EC
  0
DICTIONARYVAR
  5
70A
102
{ACAD_REACTORS
330
34
102
}
330
34
100
DictionaryVariables
280
     0
  1
STANDARD
  0
DICTIONARYVAR
  5
35
102
{ACAD_REACTORS
330
34
102
}
330
34
100
DictionaryVariables
280
     0
  1
0
  0
DICTIONARYVAR
  5
6D1
102
{ACAD_REACTORS
330
34
102
}
330
34
100
DictionaryVariables
280
     0
  1
1
  0
DICTIONARYVAR
  5
2659
102
{ACAD_REACTORS
330
34
102
}
330
34
100
DictionaryVariables
280
     0
  1

  0
DICTIONARYVAR
  5
5BF
102
{ACAD_REACTORS
330
34
102
}
330
34
100
DictionaryVariables
280
     0
  1
96
  0
DICTIONARY
  5
2660
330
63B
100
AcDbDictionary
280
     1
281
     1
  3
ACAD_XREC_ROUNDTRIP
360
2661
  0
DICTIONARY
  5
265E
330
63A
100
AcDbDictionary
280
     1
281
     1
  3
ACAD_XREC_ROUNDTRIP
360
265F
  0
DICTIONARY
  5
2662
330
66E
100
AcDbDictionary
280
     1
281
     1
  3
ACAD_XREC_ROUNDTRIP
360
2663
  0
XRECORD
  5
2661
102
{ACAD_REACTORS
330
2660
102
}
330
2660
100
AcDbXrecord
280
     1
102
SHADEPLOT
 70
     0
102
SHADEPLOTRESLEVEL
 70
     2
102
SHADEPLOTCUSTOMDPI
 70
   300
  0
XRECORD
  5
265F
102
{ACAD_REACTORS
330
265E
102
}
330
265E
100
AcDbXrecord
280
     1
102
SHADEPLOT
 70
     0
102
SHADEPLOTRESLEVEL
 70
     2
102
SHADEPLOTCUSTOMDPI
 70
   300
  0
XRECORD
  5
2663
102
{ACAD_REACTORS
330
2662
102
}
330
2662
100
AcDbXrecord
280
     1
102
SHADEPLOT
 70
     0
102
SHADEPLOTRESLEVEL
 70
     2
102
SHADEPLOTCUSTOMDPI
 70
   300
  0
ENDSEC
  0
EOF
